Классический форум-трекер
canvas not supported
Нас вместе: 4 089 462

Симпсоны / The Simpsons (полный 15 сезон, серии 22 из 22) (2003) BDRip [720p]


 
 
RSS
Начать новую тему   Ответить на тему    Торрент-трекер NNM-Club -> Мультфильмы -> Зарубежные Мультсериалы
Автор Сообщение
pop4tune ®
 
Стаж: 9 лет 7 мес.
Сообщений: 705
Ratio: 58,668
Раздал: 19,7 TB
Поблагодарили: 2195
100%
micronesia.gif
Симпсоны / The Simpsons (полный 15 сезон, серии 22 из 22) BDRip [720p] (2003)
Год выпуска: 2003
Жанр: Рисованная анимация, Комедия, Для взрослых

Язык: английский, русский, украинский

Описание:
Симпсоны — самый длинный мультсериал в истории американского телевидения, состоящий из 550 серий в 25 сезонах. Мультисериал в настоящее время знаком телезрителям более чем 100 стран. Это насыщенное сатирой (в том числе социальной) шоу высмеивает многие клише и стереотипы, в частности — стиль жизни «среднестатистического американца», особенности мировых культур в целом, знаменитостей и даже само телевидение и телеканал «Fox»; не стесняется затрагивать такие скользкие вопросы, как политика и религия: в частности, поднимались темы однополых браков, борьбы дарвинистов и креационистов, войны в Ираке. Журнал Time в 1998 году назвал «Симпсонов» лучшим телевизионным сериалом XX века.

Режиссер: Мэтт Гроунинг
Персонажи: Гомер Симпсон, Мардж Симпсон, Барт Симпсон, Лиза Симпсон, Мэгги Симпсон и другие



Продолжительность: 21 серия по ~ 00:22:00
Качество видео: BDRip
Перевод: Профессиональный (многоголосый, закадровый)
Автор перевода: Ren-TV
Язык субтитров: Английские
Вид субтитров: Вшитые, отключаемые

Видеокодек: MPEG-4 AVC/H.264
Битрейт видео: ~2000 kbps
Размер кадра: 960x720

Аудио:
Дорожка №1: Русский AC3, 48 kHz, 2.0 ch, ~192.00 kbps - Профессиональный (многоголосый, закадровый) Ren-TV
Дорожка №2: Украинский AC3, 48 kHz, 2.0 ch, ~192.00 kbps - Дубляж, M1
Дорожка №3: Английский AC3, 48.0 kHz, 5.1 ch, ~648.00 kbps
Дорожка №4: Английский ACC, 48.0 kHz, 2.0 ch, ~64.00 kbps | Комментарии
01. Treehouse of Horror XIV
02. My Mother the Carjacke
03. The President Wore Pearls
04. The Regina Monologues
05. The Fat and the Furriest
06. Today I am A Clown
07. ’Tis The Fifteenth Season
08. Marge vs. Singles, Seniors, Childless Couples and Teens, and Gays
09. I, (Annoyed Grunt)-Bot
10. Diatribe of a Mad Housewife
11. Margical History Tour
12. Milhouse Doesn’t Live Here Anymore
13. Smart and Smarter
14. The Ziff Who Came to Dinner
15. Co-Dependent’s Day
16. The Wandering Juvie
17. My Big Fat Geek Wedding
18. Catch ’em If You Can
19. Simple Simpson
20. The Way We Weren’t
21. Bart-Mangled Banner
22. Fraudcast News
Уникальный идентификатор : 222994565171860746244229241287423265862 (0xA7C330E8A747D2B980778D3DDE478C46)
Полное имя : E:\cinema\The Simpsons\The.Simpsons.S15.720p.BDRip.Rus.Ukr.Eng\15x01 - Treehouse of Horror XIV.mkv
Формат : Matroska
Версия формата : Version 2
Размер файла : 375 Мбайт
Продолжительность : 22 м.
Общий поток : 2381 Кбит/сек
Название фильма : 15x01 [EABF21] - Treehouse of Horror XIV
Дата кодирования : UTC 2013-09-18 18:16:52
Программа кодирования : mkvmerge v6.3.0 ('You can't stop me!') built on Jun 28 2013 20:09:41
Библиотека кодирования : libebml v1.3.0 + libmatroska v1.4.0

Видео
Идентификатор : 1
Формат : AVC
Формат/Информация : Advanced Video Codec
Профиль формата : High@L3.1
Параметр CABAC формата : Да
Параметр ReFrames формата : 5 кадров
Идентификатор кодека : V_MPEG4/ISO/AVC
Продолжительность : 22 м.
Ширина : 960 пикселей
Высота : 720 пикселей
Соотношение сторон : 4:3
Режим частоты кадров : Постоянный
Частота кадров : 23,976 кадра/сек
Цветовое пространство : YUV
Субдискретизация насыщенности : 4:2:0
Битовая глубина : 8 бит
Тип развёртки : Прогрессивная
Заголовок : Treehouse of Horror XIV
Библиотека кодирования : x264 core 129 r2230 1cffe9f
Настройки программы : cabac=1 / ref=5 / deblock=1:-3:-3 / analyse=0x3:0x133 / me=tesa / subme=10 / psy=0 / mixed_ref=1 / me_range=24 / chroma_me=1 / trellis=2 / 8x8dct=1 / cqm=0 / deadzone=21,11 / fast_pskip=0 / chroma_qp_offset=-2 / threads=3 / lookahead_threads=1 / sliced_threads=0 / nr=0 / decimate=1 / interlaced=0 / bluray_compat=0 / constrained_intra=0 / bframes=9 / b_pyramid=2 / b_adapt=2 / b_bias=0 / direct=1 / weightb=1 / open_gop=0 / weightp=2 / keyint=240 / keyint_min=23 / scenecut=40 / intra_refresh=0 / rc=crf / mbtree=0 / crf=17.5 / qcomp=0.60 / qpmin=0 / qpmax=69 / qpstep=4 / ip_ratio=1.40 / pb_ratio=1.30 / aq=2:0.60
Язык : English
Default : Да
Forced : Нет

Аудио #1
Идентификатор : 2
Формат : AC-3
Формат/Информация : Audio Coding 3
Расширение режима : CM (complete main)
Параметр Endianness формата : Big
Идентификатор кодека : A_AC3
Продолжительность : 22 м.
Вид битрейта : Постоянный
Битрейт : 192 Кбит/сек
Каналы : 2 канала
Расположение каналов : Front: L R
Частота : 48,0 КГц
Битовая глубина : 16 бит
Метод сжатия : С потерями
Размер потока : 30,3 Мбайт (8%)
Заголовок : RUS
Язык : Russian
Default : Да
Forced : Нет

Аудио #2
Идентификатор : 3
Формат : AC-3
Формат/Информация : Audio Coding 3
Расширение режима : CM (complete main)
Параметр Endianness формата : Big
Идентификатор кодека : A_AC3
Продолжительность : 22 м.
Вид битрейта : Постоянный
Битрейт : 192 Кбит/сек
Каналы : 2 канала
Расположение каналов : Front: L R
Частота : 48,0 КГц
Битовая глубина : 16 бит
Метод сжатия : С потерями
Размер потока : 30,3 Мбайт (8%)
Заголовок : UKR
Язык : Ukrainian
Default : Нет
Forced : Нет

Аудио #3
Идентификатор : 4
Формат : AC-3
Формат/Информация : Audio Coding 3
Расширение режима : CM (complete main)
Параметр Endianness формата : Big
Идентификатор кодека : A_AC3
Продолжительность : 22 м.
Вид битрейта : Постоянный
Битрейт : 640 Кбит/сек
Каналы : 6 каналов
Расположение каналов : Front: L C R, Side: L R, LFE
Частота : 48,0 КГц
Битовая глубина : 16 бит
Метод сжатия : С потерями
Размер потока : 101 Мбайт (27%)
Заголовок : ENG
Язык : English
Default : Нет
Forced : Нет

Аудио #4
Идентификатор : 5
Формат : AAC
Формат/Информация : Advanced Audio Codec
Профиль формата : HE-AAC / LC
Идентификатор кодека : A_AAC
Продолжительность : 22 м.
Каналы : 2 канала
Расположение каналов : Front: L R
Частота : 48,0 КГц / 24,0 КГц
Метод сжатия : С потерями
Задержка видео : 31 мс.
Заголовок : ENG, Commentary
Язык : English
Default : Нет
Forced : Нет

Текст
Идентификатор : 6
Формат : UTF-8
Идентификатор кодека : S_TEXT/UTF8
Идентификатор кодека/Информация : UTF-8 Plain Text
Заголовок : ENG
Язык : English
Default : Нет
Forced : Нет
Скриншоты:


Время раздачи: с 10:00 до 22:00

Другие раздачи 15 сезона:
Симпсоны / The Simpsons (Сезон 15, серии 01-22 из 22) (2003) DVDRip

Также рекомендую:
13 сезон в 1080p с оригинальной DTS-дорогой
14 сезон в 720p с оригинальной DTS-дорогой и субтитрами
16 сезон в 720p с оригинальной DTS-дорогой и субтитрами
[nnm-club.me] The.Simpsons.S15.720p.BDRip.Rus.Ukr.Eng.torrent
 Торрент: Платиновая раздача  Зарегистрирован
 
Скачать


Примагнититься
 Зарегистрирован:   16 Июн 2014 20:28:06
 Размер:   7,97 GB  (
 Рейтинг:   4,3 (Голосов: 37)
 Поблагодарили:   103
 Проверка:   Оформление проверено модератором 17 Июн 2014 11:17:43
Как cкачать  ·  Как раздать  ·  Правильно оформить  ·  Поднять ратио!  
pop4tune ®
 
Стаж: 9 лет 7 мес.
Сообщений: 705
Ratio: 58,668
Раздал: 19,7 TB
Поблагодарили: 2195
100%
micronesia.gif
16 сезон выложен в таком же качестве с оригинальной дорогой в DTS!
pop4tune ®
 
Стаж: 9 лет 7 мес.
Сообщений: 705
Ratio: 58,668
Раздал: 19,7 TB
Поблагодарили: 2195
100%
micronesia.gif
17 сезон в 720p с оригинальной дорогой в DTS!
stepaside111
Стаж: 6 лет 1 мес.
Сообщений: 41
Ratio: 6,645
100%
Откуда: Київ-Дублін
ireland.gif
Спасибо за украинскую аудио дорожку!

_________________
Що вподобав, на те й перетворився.
Григорій СКОВОРОДА.
Показать сообщения:   
Начать новую тему   Ответить на тему    Торрент-трекер NNM-Club -> Мультфильмы -> Зарубежные Мультсериалы Часовой пояс: GMT + 3
Страница 1 из 1