Классический форум-трекер
canvas not supported
Нас вместе: 4 089 462

Симпсоны / The Simpsons (полный 16 сезон, 21 серия из 21) (2004) BDRip [720p]


 
 
RSS
Начать новую тему   Ответить на тему    Торрент-трекер NNM-Club -> Мультфильмы -> Зарубежные Мультсериалы
Автор Сообщение
pop4tune ®
 
Стаж: 9 лет 7 мес.
Сообщений: 705
Ratio: 58,668
Раздал: 19,7 TB
Поблагодарили: 2195
100%
micronesia.gif
Симпсоны / The Simpsons (полный 16 сезон, 21 серия из 21) BDRip [720p] (2004)
Год выпуска: 2004
Жанр: Рисованная анимация, Для взрослых, Комедия

Язык: английский, русский

Описание:
Симпсоны — самый длинный мультсериал в истории американского телевидения, состоящий из 530 серий в 24 сезонах. Мультисериал в настоящее время знаком телезрителям более чем 100 стран. Это насыщенное сатирой (в том числе социальной) шоу высмеивает многие клише и стереотипы, в частности — стиль жизни «среднестатистического американца», особенности мировых культур в целом, знаменитостей и даже само телевидение и телеканал «Fox»; не стесняется затрагивать такие скользкие вопросы, как политика и религия: в частности, поднимались темы однополых браков, борьбы дарвинистов и креационистов, войны в Ираке. Журнал Time в 1998 году назвал «Симпсонов» лучшим телевизионным сериалом XX века.

Режиссер: Мэтт Гроунинг
Персонажи: Гомер Симпсон, Мардж Симпсон, Барт Симпсон, Лиза Симпсон, Мэгги Симпсон и другие



Продолжительность: 21 серия по ~ 00:22:00
Качество видео: BDRip
Перевод: Многоголосый закадровый
Автор перевода: Ren-TV
Язык субтитров: Английские
Вид субтитров: Вшитые, отключаемые

Видеокодек: MPEG-4 AVC/H.264
Битрейт видео: ~~2500 kbps
Размер кадра: 960x720

Аудио:
Дорожка №1: Русский, AC3, 48 kHz, 2.0 ch, ~192.00 kbps - Профессиональный (многоголосый, закадровый) Ren-TV
Дорожка №2: Английский, DTS, 48 kHz, 5.1 ch, 1510 Kbps
01. Treehouse of Horror XV
02. All's Fair in Oven War
03. Sleeping with the Enemy
04. She Used to Be My Girl
05. Fat Man and Little Boy
06. Midnight Rx
07. Mommie Beerest
08. Homer and Ned's Hail Mary Pass
09. Pranksta Rap
10. There's Something About Marrying
11. On a Clear Day I Can't See My Sister
12. Goo Goo Gai Pan
13. Mobile Homer
14. The Seven-Beer Snitch
15. Future-Drama
16. Don't Fear the Roofer
17. The Heartbroke Kid
18. A Star Is Torn
19. Thank God, It's Doomsday
20. Home Away From Homer
21. The Father, the Son, and the Holy Guest Star
Уникальный идентификатор : 221446146837443816309001803531737955871 (0xA698F9FDA1587CF9AE815808C148FE1F)
Полное имя : E:\cinema\The Simpsons\The Simpsons Season 16 (BDRip 720p)\01. Treehouse of Horror XV.mkv
Формат : Matroska
Версия формата : Version 2
Размер файла : 665 Мбайт
Продолжительность : 22 м.
Общий поток : 4219 Кбит/сек
Дата кодирования : UTC 2014-01-25 06:38:00
Программа кодирования : mkvmerge v5.8.0 ('No Sleep / Pillow') built on Sep 2 2012 15:37:04
Библиотека кодирования : libebml v1.2.3 + libmatroska v1.3.0

Видео
Идентификатор : 1
Формат : AVC
Формат/Информация : Advanced Video Codec
Профиль формата : High@L4.1
Параметр CABAC формата : Да
Параметр ReFrames формата : 5 кадров
Режим смешивания : Header stripping
Идентификатор кодека : V_MPEG4/ISO/AVC
Продолжительность : 22 м.
Битрейт : 2518 Кбит/сек
Ширина : 960 пикселей
Высота : 720 пикселей
Соотношение сторон : 4:3
Режим частоты кадров : Постоянный
Частота кадров : 23,976 кадра/сек
Цветовое пространство : YUV
Субдискретизация насыщенности : 4:2:0
Битовая глубина : 8 бит
Тип развёртки : Прогрессивная
Бит/(Пиксели*Кадры) : 0.152
Размер потока : 383 Мбайт (58%)
Библиотека кодирования : x264 core 140 r2377 1ca7bb9
Настройки программы : cabac=1 / ref=5 / deblock=1:0:0 / analyse=0x3:0x133 / me=umh / subme=7 / psy=1 / psy_rd=1.00:0.00 / mixed_ref=1 / me_range=16 / chroma_me=1 / trellis=1 / 8x8dct=1 / cqm=0 / deadzone=21,11 / fast_pskip=0 / chroma_qp_offset=-2 / threads=12 / lookahead_threads=2 / sliced_threads=0 / nr=0 / decimate=1 / interlaced=0 / bluray_compat=0 / constrained_intra=0 / bframes=3 / b_pyramid=2 / b_adapt=1 / b_bias=0 / direct=1 / weightb=1 / open_gop=0 / weightp=2 / keyint=250 / keyint_min=23 / scenecut=40 / intra_refresh=0 / rc_lookahead=40 / rc=2pass / mbtree=1 / bitrate=2518 / ratetol=1.0 / qcomp=0.60 / qpmin=0 / qpmax=69 / qpstep=4 / cplxblur=20.0 / qblur=0.5 / ip_ratio=1.40 / aq=1:1.00
Язык : English
Default : Да
Forced : Нет

Аудио #1
Идентификатор : 2
Формат : AC-3
Формат/Информация : Audio Coding 3
Расширение режима : CM (complete main)
Параметр Endianness формата : Big
Режим смешивания : Header stripping
Идентификатор кодека : A_AC3
Продолжительность : 22 м.
Вид битрейта : Постоянный
Битрейт : 192 Кбит/сек
Каналы : 2 канала
Расположение каналов : Front: L R
Частота : 48,0 КГц
Битовая глубина : 16 бит
Метод сжатия : С потерями
Размер потока : 30,2 Мбайт (5%)
Заголовок : РЕН-ТВ
Язык : Russian
Default : Да
Forced : Нет

Аудио #2
Идентификатор : 3
Формат : DTS
Формат/Информация : Digital Theater Systems
Режим : 16
Параметр Endianness формата : Big
Режим смешивания : Header stripping
Идентификатор кодека : A_DTS
Продолжительность : 22 м.
Вид битрейта : Постоянный
Битрейт : 1509 Кбит/сек
Каналы : 6 каналов
Расположение каналов : Front: L C R, Side: L R, LFE
Частота : 48,0 КГц
Битовая глубина : 24 бит
Метод сжатия : С потерями
Размер потока : 238 Мбайт (36%)
Заголовок : Original
Язык : English
Default : Нет
Forced : Нет

Текст
Идентификатор : 4
Формат : UTF-8
Идентификатор кодека : S_TEXT/UTF8
Идентификатор кодека/Информация : UTF-8 Plain Text
Язык : English
Default : Нет
Forced : Нет
Скриншоты:


Время раздачи: с 10:00 до 22:00

Другие раздачи 16 сезона:
Симпсоны / Simpsons 16 Сезон (2004) DVDRip

Также рекомендую:
13 сезон в 1080p с оригинальной DTS-дорогой
14 сезон в 720p с оригинальной DTS-дорогой и субтитрами
15 сезон в 720p RU/UKR/ENG с английскими сабами
[nnm-club.me] The Simpsons Season 16 (BDRip 720p).torrent
 Торрент: Платиновая раздача  Зарегистрирован
 
Скачать


Примагнититься
 Зарегистрирован:   16 Июн 2014 21:48:41
 Размер:   13,6 GB  (
 Рейтинг:   4,4 (Голосов: 38)
 Поблагодарили:   101
 Проверка:   Оформление проверено модератором 17 Июн 2014 11:11:19
Как cкачать  ·  Как раздать  ·  Правильно оформить  ·  Поднять ратио!  
pop4tune ®
 
Стаж: 9 лет 7 мес.
Сообщений: 705
Ratio: 58,668
Раздал: 19,7 TB
Поблагодарили: 2195
100%
micronesia.gif
Пожалуйста, оставайтесь на раздаче!
pop4tune ®
 
Стаж: 9 лет 7 мес.
Сообщений: 705
Ratio: 58,668
Раздал: 19,7 TB
Поблагодарили: 2195
100%
micronesia.gif
17 сезон вышел в 720p!
Aruslanov
Стаж: 4 года 11 мес.
Сообщений: 1080
Ratio: 20,191
Поблагодарили: 7663
100%
Откуда: Мордор
witch.png
Эх , вот это были сезоны так сезоны! Ни то что сей час подсовывают.

_________________
1011001 1101111 1110101 100000 1101000 1100001 1110110 1100101 100000 1110100 1101111 1101111 100000 1101101 1110101 1100011 1101000 100000 1100110 1110010 1100101 1100101 100000 1110100 1101001 1101101 1100101
Показать сообщения:   
Начать новую тему   Ответить на тему    Торрент-трекер NNM-Club -> Мультфильмы -> Зарубежные Мультсериалы Часовой пояс: GMT + 3
Страница 1 из 1