Классический форум-трекер
canvas not supported
Нас вместе: 4 094 525

Игра престолов / Game of Thrones [2014] HDTV [H.264/720р-LQ] (4 сезон, 10 серия из 10) Amedia


 
 
RSS
Начать новую тему   Ответить на тему    Торрент-трекер NNM-Club -> Зарубежные сериалы -> Игра престолов / Game of Thrones
Автор Сообщение
Orelboy ®
Стаж: 6 лет 1 мес.
Сообщений: 6
Ratio: 6,724
Поблагодарили: 812
100%
Игра престолов / Game of Thrones [2014] HDTV [H.264/720р-LQ] (4 сезон, 10 серия из 10) Amedia
Год выпуска: 2014
Жанр: Фэнтези, Драма

Перевод: Дублированный
Озвучка / Автор перевода: Amedia
Вид субтитров: Вшитые отключаемые
Язык субтитров: Русские, Английские

Релиз группа: Amedia


Дата мировой премьеры: 16.06.14
Дата российской премьеры: 16.06.14

Режиссер: Алан Тейлор, Брайан Кирк, Даниэль Минахан
Актеры: Шон Бин, Николай Костер-Вальдау, Лина Хиди, Айэйн Глен, Питер Динклэйдж, Эмилия Кларк, Мишель Фэйрли, Эйден Гиллен, Кит Харингтон, Марк Эдди

Описание фильма:
4 сезон основан на 3-ей книге Джорджа Мартина - "Буря Мечей". В этот раз события переносятся со снежных ландшафтов на пышные зеленые пейзажи. Сверхъестественные силы сотрясают все четыре стороны Королевства. Люди всех сословий борятся за власть в кровавом сражении за Железный Трон.

Продолжительность: 1:05:17
Качество видео: HDTV 720p

Видеокодек: MPEG4/ISO/AVC
Битрейт видео: ~2 980 kbps
Размер кадра: 1280x720
Аудио Rus: AC3, 2.0, 192 kbps
Аудио Eng: AC3, 5.1, 384 kbps
Сэмпл
Format : Matroska
Format version : Version 4 / Version 2
File size : 1.65 GiB
Duration : 1h 5mn
Overall bit rate : 3 628 Kbps
Encoded date : UTC 2010-02-22 21:41:31
Writing application : mkvmerge v5.9.0 ('On The Loose') built on Dec 9 2012 15:37:01
Writing library : libebml v1.3.0 + libmatroska v1.4.0
Video #1
ID : 1
Format : AVC
Format/Info : Advanced Video Codec
Format profile : High@L4.1
Format settings, CABAC : Yes
Format settings, ReFrames : 5 frames
Muxing mode : Header stripping
Codec ID : V_MPEG4/ISO/AVC
Duration : 1h 5mn
Bit rate : 2 980 Kbps
Width : 1 280 pixels
Height : 720 pixels
Display aspect ratio : 16:9
Frame rate mode : Constant
Frame rate : 23.976 fps
Color space : YUV
Chroma subsampling : 4:2:0
Bit depth : 8 bits
Scan type : Progressive
Bits/(Pixel*Frame) : 0.135
Stream size : 1.36 GiB (82%)
Writing library : x264 core 142 r2431 ac76440
Encoding settings : cabac=1 / ref=5 / deblock=1:0:0 / analyse=0x3:0x113 / me=umh / subme=8 / psy=1 / psy_rd=1.00:0.00 / mixed_ref=1 / me_range=16 / chroma_me=1 / trellis=1 / 8x8dct=1 / cqm=0 / deadzone=21,11 / fast_pskip=1 / chroma_qp_offset=-2 / threads=18 / lookahead_threads=3 / sliced_threads=0 / nr=0 / decimate=1 / interlaced=0 / bluray_compat=0 / constrained_intra=0 / bframes=3 / b_pyramid=2 / b_adapt=2 / b_bias=0 / direct=3 / weightb=1 / open_gop=0 / weightp=2 / keyint=250 / keyint_min=23 / scenecut=40 / intra_refresh=0 / rc_lookahead=50 / rc=crf / mbtree=1 / crf=18.0 / qcomp=0.60 / qpmin=0 / qpmax=69 / qpstep=4 / ip_ratio=1.40 / aq=1:1.00
Language : English
Default : Yes
Forced : No
Matrix coefficients : BT.709
Audio #2
ID : 2
Format : AC-3
Format/Info : Audio Coding 3
Mode extension : CM (complete main)
Format settings, Endianness : Big
Muxing mode : Header stripping
Codec ID : A_AC3
Duration : 1h 5mn
Bit rate mode : Constant
Bit rate : 384 Kbps
Channel(s) : 6 channels
Channel positions : Front: L C R, Side: L R, LFE
Sampling rate : 48.0 KHz
Bit depth : 16 bits
Compression mode : Lossy
Stream size : 179 MiB (11%)
Language : English
Default : No
Forced : No
Audio #4
ID : 4
Format : AC-3
Format/Info : Audio Coding 3
Mode extension : CM (complete main)
Format settings, Endianness : Big
Muxing mode : Header stripping
Codec ID : A_AC3
Duration : 1h 5mn
Bit rate mode : Constant
Bit rate : 192 Kbps
Channel(s) : 2 channels
Channel positions : Front: L R
Sampling rate : 48.0 KHz
Bit depth : 16 bits
Compression mode : Lossy
Stream size : 89.7 MiB (5%)
Language : Russian
Default : Yes
Forced : Yes
Text #3
ID : 3
Format : UTF-8
Codec ID : S_TEXT/UTF8
Codec ID/Info : UTF-8 Plain Text
Language : Russian
Default : No
Forced : No
Text #5
ID : 5
Format : UTF-8
Codec ID : S_TEXT/UTF8
Codec ID/Info : UTF-8 Plain Text
Language : English
Default : No
Forced : No

Все релизы (Игра престолов)

Время раздачи: с 23:00 до 6:00
[NNM-Club.me]_Game.of.Thrones.s04e10.720p.hdtv.x264.Subs.Amedia.mkv.torrent
 Торрент:   Зарегистрирован
 
Зарегистрируйтесь и скачайте торрент!
16,9 KB

Примагнититься
 Зарегистрирован:   16 Июн 2014 22:11:16
 Размер:   1,65 GB  (
 Рейтинг:   4,7 (Голосов: 210)
 Поблагодарили:   812
 Проверка:   Оформление проверено модератором 19 Июн 2014 13:58:50
Как cкачать  ·  Как раздать  ·  Правильно оформить  ·  Поднять ратио!  
znavez
Стаж: 6 лет 4 мес.
Сообщений: 2
Ratio: 4,553
22.97%
О! Спасибо! )
Rafinad31rus
Стаж: 8 лет
Сообщений: 4
Ratio: 4,003
100%
концовка в как и в 3-м сезоне загадочная и заставляет ждать 5-го сезона с нетерпением
mooir
Стаж: 8 лет 6 мес.
Сообщений: 227
Ratio: 26,202
21.97%
witch.png
Остаюсь на раздаче, качество ок, перевод нормальный.
Pahan_Cha
Стаж: 6 лет 9 мес.
Сообщений: 2
Ratio: 15,512
100%
Цитата:
Сейчас посмотрим где собака зарыта))) =)
KradaBash1
Стаж: 5 лет 10 мес.
Сообщений: 32
Ratio: 29,387
50%
Эта лучший сериал однозначно!
zero1024
Стаж: 8 лет 10 мес.
Сообщений: 2
Ratio: 12,957
0%
английская дорожка субтитров отстает на две минуты. Зря качал
AlexV555
Стаж: 8 лет 6 мес.
Сообщений: 19
Ratio: 1,074
100%
russia.gif
на телевизоре (LG) не идет
Antonio2707

Online
Стаж: 7 лет
Сообщений: 164
Ratio: 9,667
100%
russia.gif
Скачал с переводом от Amedia и потом от LostFilm и лично мое мнение LostFilm "впереди планеты всей", Amedia "курит в сторонке".
Ural377
Стаж: 10 лет 3 мес.
Сообщений: 36
Ratio: 2,311
Поблагодарили: 108
2.69%
Когдаж Мартин закончит писать...Доживем ли мы до финала.
Rihtor
Стаж: 10 лет 8 мес.
Сообщений: 75
Ratio: 14,544
Поблагодарили: 621
100%
Скажите, а почему перевод Amedia только 4ого сезона, когда у них на сайте есть все с 1 по 4?
paulomyaulo
Стаж: 9 лет 2 мес.
Сообщений: 88
Ratio: 11,626
Поблагодарили: 915
100%
Доживет ли Мартин)
lmv911
Стаж: 5 лет 9 мес.
Сообщений: 1
26.67%
На телике LG идёт без перевода :незнает:
Показать сообщения:   
Начать новую тему   Ответить на тему    Торрент-трекер NNM-Club -> Зарубежные сериалы -> Игра престолов / Game of Thrones Часовой пояс: GMT + 3
Страница 1 из 1