Классический форум-трекер
canvas not supported
Нас вместе: 4 094 042

VA - Хранители / Watchmen (2009) [AAC|WEB-DL|256 кб/с]<Soundtrack>


 
 
RSS
Начать новую тему   Ответить на тему    Торрент-трекер NNM-Club -> Аудио и Видео -> Музыка (AAC)
Автор Сообщение
igoryek ®
Стаж: 11 лет
Сообщений: 347
Ratio: 50,98
Поблагодарили: 22890
100%
VA - Хранители / Watchmen (2009)
Год: 2009
Жанр: Soundtrack
Продолжительность: 00:53:49

Кодек: AAC
Битрейт: 256 кб/с
Тип битрейта: VBR

Треклист:
01 - My Chemical Romance - Desolation Row
02 - Nat King Cole - Unforgettable
03 - Bob Dylan - The Times They are A-Changin'
04 - Simon and Garfunkel - The Sound of Silence
05 - Janis Joplin - Me and Bobby McGee
06 - K.C. and The Sunshine Band - I'm Your Boogie Man
07 - Billie Holiday - You're My Thrill
08 - The Philip Glass Ensemble - Pruit Igoe and Prophecies
09 - Leonard Cohen - Hallelujah
10 - Jimi Hendrix - All Along the Watchtower
11 - Budapest Symphony Orchestra - Ride of the Valkyries
12 - Nina Simone - Pirate Jenny
Код:

General
Complete name                            : D:\Sound\Music\Soundtracks\Watchmen\VA - Watchmen - OST (2009) [AAC]\01 Desolation Row.m4a
Format                                   : MPEG-4
Format profile                           : Apple audio with iTunes info
Codec ID                                 : M4A
File size                                : 6.09 MiB
Duration                                 : 2mn 59s
Overall bit rate mode                    : Variable
Overall bit rate                         : 285 Kbps
Album                                    : Watchmen (Music from the Motion Picture)
Album/Performer                          : Various Artists
Part/Position                            : 1
Part/Total                               : 1
Track name                               : Desolation Row
Track name/Position                      : 1
Track name/Total                         : 12
Compilation                              : Yes
Performer                                : My Chemical Romance
Genre                                    : Filmmusik
ContentType                              : Music
Description                              : www.hoodoola.com
Recorded date                            : UTC 2009-02-24 08:00:00
Tagged date                              : UTC 2011-06-15 13:03:36
Copyright                                : ℗ This Compilation P2009 Reprise Records.
Service name                             : iTunes
Cover                                    : Yes
Rating                                   : None
AppleStoreAccount                        : exact16@gmx.net
AppleStoreCatalogID                      : 305812088
AlbumTitleID                             : 14748659
PlayListID                               : 305812005
GenreID                                  : 16
AppleStoreCountry                        : Germany
AppleStoreAccountType                    : iTunes
PurchaseDate                             : 2011-01-04 08:09:57
Vendor                                   : Warner:isrc:USRE10900001
iTunMOVI                                 : <?xml version="1.0" encoding="UTF-8"?> / <!DOCTYPE plist PUBLIC "-//Apple//DTD PLIST 1.0//EN" "http://www.apple.com/DTDs/PropertyList-1.0.dtd"> / <plist version="1.0"> / <dict> /   <key>asset-info</key> /   <dict> /     <key>file-size</key> /     <integer>6383358</integer> /     <key>flavor</key> /     <string>2:256</string> /   </dict> / </dict> / </plist>
Title/Sort                               : www.hoodoola.com

Audio
ID                                       : 1
Format                                   : AAC
Format/Info                              : Advanced Audio Codec
Format profile                           : LC
Codec ID                                 : 40
Duration                                 : 2mn 59s
Bit rate mode                            : Variable
Bit rate                                 : 256 Kbps
Maximum bit rate                         : 332 Kbps
Channel(s)                               : 2 channels
Channel positions                        : Front: L R
Sampling rate                            : 44.1 KHz
Compression mode                         : Lossy
Stream size                              : 5.52 MiB (91%)
Language                                 : English
Tagged date                              : UTC 2011-06-15 13:03:36

General
Complete name                            : D:\Sound\Music\Soundtracks\Watchmen\VA - Watchmen - OST (2009) [AAC]\02 Unforgettable.m4a
Format                                   : MPEG-4
Format profile                           : Apple audio with iTunes info
Codec ID                                 : M4A
File size                                : 6.94 MiB
Duration                                 : 3mn 26s
Overall bit rate mode                    : Variable
Overall bit rate                         : 281 Kbps
Album                                    : Watchmen (Music from the Motion Picture)
Album/Performer                          : Various Artists
Part/Position                            : 1
Part/Total                               : 1
Track name                               : Unforgettable
Track name/Position                      : 2
Track name/Total                         : 12
Compilation                              : Yes
Performer                                : Nat "King" Cole
Composer                                 : Gordon & Irving Gordon
Genre                                    : Filmmusik
ContentType                              : Music
Description                              : www.hoodoola.com
Recorded date                            : UTC 2009-02-24 08:00:00
Encoded date                             : UTC 1998-10-13 08:37:25
Tagged date                              : UTC 2011-06-15 13:03:36
Copyright                                : ℗ This Compilation P2009 Reprise Records.
Service name                             : iTunes
Cover                                    : Yes
Rating                                   : None
AppleStoreAccount                        : exact16@gmx.net
AppleStoreCatalogID                      : 305812089
AlbumTitleID                             : 42616562
cmID                                     : 366844
PlayListID                               : 305812005
GenreID                                  : 16
AppleStoreCountry                        : Germany
AppleStoreAccountType                    : iTunes
PurchaseDate                             : 2011-01-04 08:09:57
Vendor                                   : Warner:isrc:USCA20300539
iTunMOVI                                 : <?xml version="1.0" encoding="UTF-8"?> / <!DOCTYPE plist PUBLIC "-//Apple//DTD PLIST 1.0//EN" "http://www.apple.com/DTDs/PropertyList-1.0.dtd"> / <plist version="1.0"> / <dict> /   <key>asset-info</key> /   <dict> /     <key>file-size</key> /     <integer>7277538</integer> /     <key>flavor</key> /     <string>2:256</string> /   </dict> / </dict> / </plist>
Title/Sort                               : www.hoodoola.com

Audio
ID                                       : 1
Format                                   : AAC
Format/Info                              : Advanced Audio Codec
Format profile                           : LC
Codec ID                                 : 40
Duration                                 : 3mn 26s
Bit rate mode                            : Variable
Bit rate                                 : 256 Kbps
Maximum bit rate                         : 304 Kbps
Channel(s)                               : 2 channels
Channel positions                        : Front: L R
Sampling rate                            : 44.1 KHz
Compression mode                         : Lossy
Stream size                              : 6.37 MiB (92%)
Language                                 : English
Encoded date                             : UTC 1998-10-13 08:37:25
Tagged date                              : UTC 2011-06-15 13:03:36

General
Complete name                            : D:\Sound\Music\Soundtracks\Watchmen\VA - Watchmen - OST (2009) [AAC]\03 The Times They Are A-Changin'.m4a
Format                                   : MPEG-4
Format profile                           : Apple audio with iTunes info
Codec ID                                 : M4A
File size                                : 6.38 MiB
Duration                                 : 3mn 12s
Overall bit rate mode                    : Variable
Overall bit rate                         : 278 Kbps
Album                                    : Watchmen (Music from the Motion Picture)
Album/Performer                          : Various Artists
Part/Position                            : 1
Part/Total                               : 1
Track name                               : The Times They Are A-Changin'
Track name/Position                      : 3
Track name/Total                         : 12
Compilation                              : Yes
Performer                                : Bob Dylan
Genre                                    : Filmmusik
ContentType                              : Music
Description                              : www.hoodoola.com
Recorded date                            : UTC 2009-02-24 08:00:00
Tagged date                              : UTC 2011-06-15 13:03:36
Copyright                                : ℗ This Compilation P2009 Reprise Records.
Service name                             : iTunes
Cover                                    : Yes
Lyrics                                   : MyiTunestMusic.blogspot.com By Mattew Bellamy
Rating                                   : None
AppleStoreAccount                        : exact16@gmx.net
AppleStoreCatalogID                      : 305812090
AlbumTitleID                             : 462006
PlayListID                               : 305812005
GenreID                                  : 16
AppleStoreCountry                        : Germany
AppleStoreAccountType                    : iTunes
PurchaseDate                             : 2011-01-04 08:09:57
Vendor                                   : Warner:isrc:USSM16301214
iTunMOVI                                 : <?xml version="1.0" encoding="UTF-8"?> / <!DOCTYPE plist PUBLIC "-//Apple//DTD PLIST 1.0//EN" "http://www.apple.com/DTDs/PropertyList-1.0.dtd"> / <plist version="1.0"> / <dict> /   <key>asset-info</key> /   <dict> /     <key>file-size</key> /     <integer>6691380</integer> /     <key>flavor</key> /     <string>2:256</string> /   </dict> / </dict> / </plist>
Title/Sort                               : www.hoodoola.com

Audio
ID                                       : 1
Format                                   : AAC
Format/Info                              : Advanced Audio Codec
Format profile                           : LC
Codec ID                                 : 40
Duration                                 : 3mn 12s
Bit rate mode                            : Variable
Bit rate                                 : 256 Kbps
Maximum bit rate                         : 292 Kbps
Channel(s)                               : 2 channels
Channel positions                        : Front: L R
Sampling rate                            : 44.1 KHz
Compression mode                         : Lossy
Stream size                              : 5.82 MiB (91%)
Language                                 : English
Tagged date                              : UTC 2011-06-15 13:03:36

General
Complete name                            : D:\Sound\Music\Soundtracks\Watchmen\VA - Watchmen - OST (2009) [AAC]\04 The Sound of Silence.m4a
Format                                   : MPEG-4
Format profile                           : Apple audio with iTunes info
Codec ID                                 : M4A
File size                                : 6.28 MiB
Duration                                 : 3mn 5s
Overall bit rate mode                    : Variable
Overall bit rate                         : 283 Kbps
Album                                    : Watchmen (Music from the Motion Picture)
Album/Performer                          : Various Artists
Part/Position                            : 1
Part/Total                               : 1
Track name                               : The Sound of Silence
Track name/Position                      : 4
Track name/Total                         : 12
Compilation                              : Yes
Performer                                : Simon & Garfunkel
Genre                                    : Filmmusik
ContentType                              : Music
Description                              : www.hoodoola.com
Recorded date                            : UTC 2009-02-24 08:00:00
Tagged date                              : UTC 2011-06-15 13:03:36
Copyright                                : ℗ This Compilation P2009 Reprise Records.
Service name                             : iTunes
Cover                                    : Yes
Rating                                   : None
AppleStoreAccount                        : exact16@gmx.net
AppleStoreCatalogID                      : 305812091
AlbumTitleID                             : 461503
PlayListID                               : 305812005
GenreID                                  : 16
AppleStoreCountry                        : Germany
AppleStoreAccountType                    : iTunes
PurchaseDate                             : 2011-01-04 08:09:57
Vendor                                   : Warner:isrc:USSM16401131
iTunMOVI                                 : <?xml version="1.0" encoding="UTF-8"?> / <!DOCTYPE plist PUBLIC "-//Apple//DTD PLIST 1.0//EN" "http://www.apple.com/DTDs/PropertyList-1.0.dtd"> / <plist version="1.0"> / <dict> /   <key>asset-info</key> /   <dict> /     <key>file-size</key> /     <integer>6580870</integer> /     <key>flavor</key> /     <string>2:256</string> /   </dict> / </dict> / </plist>
Title/Sort                               : www.hoodoola.com

Audio
ID                                       : 1
Format                                   : AAC
Format/Info                              : Advanced Audio Codec
Format profile                           : LC
Codec ID                                 : 40
Duration                                 : 3mn 5s
Bit rate mode                            : Variable
Bit rate                                 : 256 Kbps
Maximum bit rate                         : 327 Kbps
Channel(s)                               : 2 channels
Channel positions                        : Front: L R
Sampling rate                            : 44.1 KHz
Compression mode                         : Lossy
Stream size                              : 5.71 MiB (91%)
Language                                 : English
Tagged date                              : UTC 2011-06-15 13:03:36

General
Complete name                            : D:\Sound\Music\Soundtracks\Watchmen\VA - Watchmen - OST (2009) [AAC]\05 Me and Bobby McGee.m4a
Format                                   : MPEG-4
Format profile                           : Apple audio with iTunes info
Codec ID                                 : M4A
File size                                : 8.73 MiB
Duration                                 : 4mn 29s
Overall bit rate mode                    : Variable
Overall bit rate                         : 271 Kbps
Album                                    : Watchmen (Music from the Motion Picture)
Album/Performer                          : Various Artists
Part/Position                            : 1
Part/Total                               : 1
Track name                               : Me and Bobby McGee
Track name/Position                      : 5
Track name/Total                         : 12
Compilation                              : Yes
Performer                                : Janis Joplin
Composer                                 : Fred Foster, K. Kristofferson,F. Foster & Kris Kristofferson
Genre                                    : Filmmusik
ContentType                              : Music
Description                              : www.hoodoola.com
Recorded date                            : UTC 2009-02-24 08:00:00
Encoded date                             : UTC 2003-07-27 17:52:05
Tagged date                              : UTC 2011-06-15 13:03:36
Copyright                                : ℗ This Compilation P2009 Reprise Records.
Service name                             : iTunes
Cover                                    : Yes
Rating                                   : None
AppleStoreAccount                        : exact16@gmx.net
AppleStoreCatalogID                      : 305812092
AlbumTitleID                             : 365673
cmID                                     : 251114
PlayListID                               : 305812005
GenreID                                  : 16
AppleStoreCountry                        : Germany
AppleStoreAccountType                    : iTunes
PurchaseDate                             : 2011-01-04 08:09:57
Vendor                                   : Warner:isrc:USSM17000790
iTunMOVI                                 : <?xml version="1.0" encoding="UTF-8"?> / <!DOCTYPE plist PUBLIC "-//Apple//DTD PLIST 1.0//EN" "http://www.apple.com/DTDs/PropertyList-1.0.dtd"> / <plist version="1.0"> / <dict> /   <key>asset-info</key> /   <dict> /     <key>file-size</key> /     <integer>9158345</integer> /     <key>flavor</key> /     <string>2:256</string> /   </dict> / </dict> / </plist>
Title/Sort                               : www.hoodoola.com

Audio
ID                                       : 1
Format                                   : AAC
Format/Info                              : Advanced Audio Codec
Format profile                           : LC
Codec ID                                 : 40
Duration                                 : 4mn 29s
Bit rate mode                            : Variable
Bit rate                                 : 256 Kbps
Maximum bit rate                         : 312 Kbps
Channel(s)                               : 2 channels
Channel positions                        : Front: L R
Sampling rate                            : 44.1 KHz
Compression mode                         : Lossy
Stream size                              : 8.16 MiB (93%)
Language                                 : English
Encoded date                             : UTC 2003-07-27 17:52:05
Tagged date                              : UTC 2011-06-15 13:03:36

General
Complete name                            : D:\Sound\Music\Soundtracks\Watchmen\VA - Watchmen - OST (2009) [AAC]\06 I'm Your Boogie Man.m4a
Format                                   : MPEG-4
Format profile                           : Apple audio with iTunes info
Codec ID                                 : M4A
File size                                : 8.05 MiB
Duration                                 : 4mn 1s
Overall bit rate mode                    : Variable
Overall bit rate                         : 279 Kbps
Album                                    : Watchmen (Music from the Motion Picture)
Album/Performer                          : Various Artists
Part/Position                            : 1
Part/Total                               : 1
Track name                               : I'm Your Boogie Man
Track name/Position                      : 6
Track name/Total                         : 12
Compilation                              : Yes
Performer                                : KC & The Sunshine  Band
Composer                                 : Harry Wayne Casey & Richard Finch
Genre                                    : Filmmusik
ContentType                              : Music
Description                              : www.hoodoola.com
Recorded date                            : UTC 2009-02-24 08:00:00
Tagged date                              : UTC 2011-06-15 13:03:36
Copyright                                : ℗ This Compilation P2009 Reprise Records.
Service name                             : iTunes
Cover                                    : Yes
Lyrics                                   : MyiTunestMusic.blogspot.com By Mattew Bellamy
Rating                                   : None
AppleStoreAccount                        : exact16@gmx.net
AppleStoreCatalogID                      : 305812093
AlbumTitleID                             : 30632724
cmID                                     : 291215
PlayListID                               : 305812005
GenreID                                  : 16
AppleStoreCountry                        : Germany
AppleStoreAccountType                    : iTunes
PurchaseDate                             : 2011-01-04 08:09:57
Vendor                                   : Warner:isrc:GBAYE7700206
iTunMOVI                                 : <?xml version="1.0" encoding="UTF-8"?> / <!DOCTYPE plist PUBLIC "-//Apple//DTD PLIST 1.0//EN" "http://www.apple.com/DTDs/PropertyList-1.0.dtd"> / <plist version="1.0"> / <dict> /   <key>asset-info</key> /   <dict> /     <key>file-size</key> /     <integer>8445270</integer> /     <key>flavor</key> /     <string>2:256</string> /   </dict> / </dict> / </plist>
Title/Sort                               : www.hoodoola.com

Audio
ID                                       : 1
Format                                   : AAC
Format/Info                              : Advanced Audio Codec
Format profile                           : LC
Codec ID                                 : 40
Duration                                 : 4mn 1s
Bit rate mode                            : Variable
Bit rate                                 : 256 Kbps
Maximum bit rate                         : 326 Kbps
Channel(s)                               : 2 channels
Channel positions                        : Front: L R
Sampling rate                            : 44.1 KHz
Compression mode                         : Lossy
Stream size                              : 7.48 MiB (93%)
Language                                 : English
Tagged date                              : UTC 2011-06-15 13:03:36

General
Complete name                            : D:\Sound\Music\Soundtracks\Watchmen\VA - Watchmen - OST (2009) [AAC]\07 You're My Thrill.m4a
Format                                   : MPEG-4
Format profile                           : Apple audio with iTunes info
Codec ID                                 : M4A
File size                                : 6.35 MiB
Duration                                 : 3mn 22s
Overall bit rate mode                    : Variable
Overall bit rate                         : 263 Kbps
Album                                    : Watchmen (Music from the Motion Picture)
Album/Performer                          : Various Artists
Part/Position                            : 1
Part/Total                               : 1
Track name                               : You're My Thrill
Track name/Position                      : 7
Track name/Total                         : 12
Compilation                              : Yes
Performer                                : Billie Holiday
Genre                                    : Filmmusik
ContentType                              : Music
Description                              : www.hoodoola.com
Recorded date                            : UTC 2009-02-24 08:00:00
Encoded date                             : UTC 1972-03-15 20:08:37
Tagged date                              : UTC 2011-06-15 13:03:36
Copyright                                : ℗ This Compilation P2009 Reprise Records.
Service name                             : iTunes
Cover                                    : Yes
Rating                                   : None
AppleStoreAccount                        : exact16@gmx.net
AppleStoreCatalogID                      : 305812094
AlbumTitleID                             : 37299
PlayListID                               : 305812005
GenreID                                  : 16
AppleStoreCountry                        : Germany
AppleStoreAccountType                    : iTunes
PurchaseDate                             : 2011-01-04 08:09:57
Vendor                                   : Warner:isrc:USMC14975421
iTunMOVI                                 : <?xml version="1.0" encoding="UTF-8"?> / <!DOCTYPE plist PUBLIC "-//Apple//DTD PLIST 1.0//EN" "http://www.apple.com/DTDs/PropertyList-1.0.dtd"> / <plist version="1.0"> / <dict> /   <key>asset-info</key> /   <dict> /     <key>file-size</key> /     <integer>6654440</integer> /     <key>flavor</key> /     <string>2:256</string> /   </dict> / </dict> / </plist>
Title/Sort                               : www.hoodoola.com

Audio
ID                                       : 1
Format                                   : AAC
Format/Info                              : Advanced Audio Codec
Format profile                           : LC
Codec ID                                 : 40
Duration                                 : 3mn 22s
Bit rate mode                            : Variable
Bit rate                                 : 240 Kbps
Nominal bit rate                         : 256 Kbps
Maximum bit rate                         : 257 Kbps
Channel(s)                               : 2 channels
Channel positions                        : Front: L R
Sampling rate                            : 44.1 KHz
Compression mode                         : Lossy
Stream size                              : 5.78 MiB (91%)
Language                                 : English
Encoded date                             : UTC 1972-03-15 20:08:37
Tagged date                              : UTC 2011-06-15 13:03:36

General
Complete name                            : D:\Sound\Music\Soundtracks\Watchmen\VA - Watchmen - OST (2009) [AAC]\08 Pruit Igoe & Prophecies.m4a
Format                                   : MPEG-4
Format profile                           : Apple audio with iTunes info
Codec ID                                 : M4A
File size                                : 16.2 MiB
Duration                                 : 8mn 35s
Overall bit rate mode                    : Variable
Overall bit rate                         : 263 Kbps
Album                                    : Watchmen (Music from the Motion Picture)
Album/Performer                          : Various Artists
Part/Position                            : 1
Part/Total                               : 1
Track name                               : Pruit Igoe & Prophecies
Track name/Position                      : 8
Track name/Total                         : 12
Compilation                              : Yes
Performer                                : The Philip Glass Ensemble
Composer                                 : Philip Glass
Genre                                    : Filmmusik
ContentType                              : Music
Description                              : www.hoodoola.com
Recorded date                            : UTC 2009-02-24 08:00:00
Encoded date                             : UTC 2037-08-06 01:41:25
Tagged date                              : UTC 2011-06-15 13:03:37
Copyright                                : ℗ This Compilation P2009 Reprise Records.
Service name                             : iTunes
Cover                                    : Yes
Rating                                   : None
AppleStoreAccount                        : exact16@gmx.net
AppleStoreCatalogID                      : 305812095
AlbumTitleID                             : 63665692
cmID                                     : 791154
PlayListID                               : 305812005
GenreID                                  : 16
AppleStoreCountry                        : Germany
AppleStoreAccountType                    : iTunes
PurchaseDate                             : 2011-01-04 08:09:57
Vendor                                   : Warner:isrc:USNO10900009
iTunMOVI                                 : <?xml version="1.0" encoding="UTF-8"?> / <!DOCTYPE plist PUBLIC "-//Apple//DTD PLIST 1.0//EN" "http://www.apple.com/DTDs/PropertyList-1.0.dtd"> / <plist version="1.0"> / <dict> /   <key>asset-info</key> /   <dict> /     <key>file-size</key> /     <integer>16954493</integer> /     <key>flavor</key> /     <string>2:256</string> /   </dict> / </dict> / </plist>
Title/Sort                               : www.hoodoola.com

Audio
ID                                       : 1
Format                                   : AAC
Format/Info                              : Advanced Audio Codec
Format profile                           : LC
Codec ID                                 : 40
Duration                                 : 8mn 35s
Bit rate mode                            : Variable
Bit rate                                 : 256 Kbps
Maximum bit rate                         : 309 Kbps
Channel(s)                               : 2 channels
Channel positions                        : Front: L R
Sampling rate                            : 44.1 KHz
Compression mode                         : Lossy
Stream size                              : 15.5 MiB (96%)
Language                                 : English
Encoded date                             : UTC 2037-08-06 01:41:25
Tagged date                              : UTC 2011-06-15 13:03:37

General
Complete name                            : D:\Sound\Music\Soundtracks\Watchmen\VA - Watchmen - OST (2009) [AAC]\09 Hallelujah.m4a
Format                                   : MPEG-4
Format profile                           : Apple audio with iTunes info
Codec ID                                 : M4A
File size                                : 9.09 MiB
Duration                                 : 4mn 36s
Overall bit rate mode                    : Variable
Overall bit rate                         : 276 Kbps
Album                                    : Watchmen (Music from the Motion Picture)
Album/Performer                          : Various Artists
Part/Position                            : 1
Part/Total                               : 1
Track name                               : Hallelujah
Track name/Position                      : 9
Track name/Total                         : 12
Compilation                              : Yes
Performer                                : Leonard Cohen
Genre                                    : Filmmusik
ContentType                              : Music
Description                              : www.hoodoola.com
Recorded date                            : UTC 2009-02-24 08:00:00
Encoded date                             : UTC 1986-07-24 11:28:05
Tagged date                              : UTC 2011-06-15 13:03:37
Copyright                                : ℗ This Compilation P2009 Reprise Records.
Service name                             : iTunes
Cover                                    : Yes
Rating                                   : None
AppleStoreAccount                        : exact16@gmx.net
AppleStoreCatalogID                      : 305812096
AlbumTitleID                             : 485677
PlayListID                               : 305812005
GenreID                                  : 16
AppleStoreCountry                        : Germany
AppleStoreAccountType                    : iTunes
PurchaseDate                             : 2011-01-04 08:09:57
Vendor                                   : Warner:isrc:USSM10026643
iTunMOVI                                 : <?xml version="1.0" encoding="UTF-8"?> / <!DOCTYPE plist PUBLIC "-//Apple//DTD PLIST 1.0//EN" "http://www.apple.com/DTDs/PropertyList-1.0.dtd"> / <plist version="1.0"> / <dict> /   <key>asset-info</key> /   <dict> /     <key>file-size</key> /     <integer>9530838</integer> /     <key>flavor</key> /     <string>2:256</string> /   </dict> / </dict> / </plist>
Title/Sort                               : www.hoodoola.com

Audio
ID                                       : 1
Format                                   : AAC
Format/Info                              : Advanced Audio Codec
Format profile                           : LC
Codec ID                                 : 40
Duration                                 : 4mn 36s
Bit rate mode                            : Variable
Bit rate                                 : 256 Kbps
Maximum bit rate                         : 304 Kbps
Channel(s)                               : 2 channels
Channel positions                        : Front: L R
Sampling rate                            : 44.1 KHz
Compression mode                         : Lossy
Stream size                              : 8.51 MiB (94%)
Language                                 : English
Encoded date                             : UTC 1986-07-24 11:28:05
Tagged date                              : UTC 2011-06-15 13:03:37

General
Complete name                            : D:\Sound\Music\Soundtracks\Watchmen\VA - Watchmen - OST (2009) [AAC]\10 All Along the Watchtower.m4a
Format                                   : MPEG-4
Format profile                           : Apple audio with iTunes info
Codec ID                                 : M4A
File size                                : 7.95 MiB
Duration                                 : 3mn 59s
Overall bit rate mode                    : Variable
Overall bit rate                         : 278 Kbps
Album                                    : Watchmen (Music from the Motion Picture)
Album/Performer                          : Various Artists
Part/Position                            : 1
Part/Total                               : 1
Track name                               : All Along the Watchtower
Track name/Position                      : 10
Track name/Total                         : 12
Compilation                              : Yes
Performer                                : Jimi Hendrix
Composer                                 : Bob Dylan
Genre                                    : Filmmusik
ContentType                              : Music
Description                              : www.hoodoola.com
Recorded date                            : UTC 2009-02-24 08:00:00
Encoded date                             : UTC 2036-01-02 06:52:53
Tagged date                              : UTC 2011-06-15 13:03:37
Copyright                                : ℗ This Compilation P2009 Reprise Records.
Service name                             : iTunes
Cover                                    : Yes
Lyrics                                   : MyiTunestMusic.blogspot.com By Mattew Bellamy
Rating                                   : None
AppleStoreAccount                        : exact16@gmx.net
AppleStoreCatalogID                      : 305812097
AlbumTitleID                             : 62852
cmID                                     : 462006
PlayListID                               : 305812005
GenreID                                  : 16
AppleStoreCountry                        : Germany
AppleStoreAccountType                    : iTunes
PurchaseDate                             : 2011-01-04 08:09:57
Vendor                                   : Warner:isrc:USMC10000797
iTunMOVI                                 : <?xml version="1.0" encoding="UTF-8"?> / <!DOCTYPE plist PUBLIC "-//Apple//DTD PLIST 1.0//EN" "http://www.apple.com/DTDs/PropertyList-1.0.dtd"> / <plist version="1.0"> / <dict> /   <key>asset-info</key> /   <dict> /     <key>file-size</key> /     <integer>8336813</integer> /     <key>flavor</key> /     <string>2:256</string> /   </dict> / </dict> / </plist>
Title/Sort                               : www.hoodoola.com

Audio
ID                                       : 1
Format                                   : AAC
Format/Info                              : Advanced Audio Codec
Format profile                           : LC
Codec ID                                 : 40
Duration                                 : 3mn 59s
Bit rate mode                            : Variable
Bit rate                                 : 256 Kbps
Maximum bit rate                         : 336 Kbps
Channel(s)                               : 2 channels
Channel positions                        : Front: L R
Sampling rate                            : 44.1 KHz
Compression mode                         : Lossy
Stream size                              : 7.38 MiB (93%)
Language                                 : English
Encoded date                             : UTC 2036-01-02 06:52:53
Tagged date                              : UTC 2011-06-15 13:03:37

General
Complete name                            : D:\Sound\Music\Soundtracks\Watchmen\VA - Watchmen - OST (2009) [AAC]\11 Ride of the Valkyries.m4a
Format                                   : MPEG-4
Format profile                           : Apple audio with iTunes info
Codec ID                                 : M4A
File size                                : 10.5 MiB
Duration                                 : 5mn 20s
Overall bit rate mode                    : Variable
Overall bit rate                         : 275 Kbps
Album                                    : Watchmen (Music from the Motion Picture)
Album/Performer                          : Various Artists
Part/Position                            : 1
Part/Total                               : 1
Track name                               : Ride of the Valkyries
Track name/Position                      : 11
Track name/Total                         : 12
Compilation                              : Yes
Performer                                : Budapest Symphony Orchestra
Composer                                 : Richard Wagner
Genre                                    : Filmmusik
ContentType                              : Music
Description                              : www.hoodoola.com
Recorded date                            : UTC 2009-02-24 08:00:00
Tagged date                              : UTC 2011-06-15 13:03:37
Copyright                                : ℗ This Compilation P2009 Reprise Records.
Service name                             : iTunes
Cover                                    : Yes
Rating                                   : None
AppleStoreAccount                        : exact16@gmx.net
AppleStoreCatalogID                      : 305812099
AlbumTitleID                             : 4640116
cmID                                     : 276997
PlayListID                               : 305812005
GenreID                                  : 16
AppleStoreCountry                        : Germany
AppleStoreAccountType                    : iTunes
PurchaseDate                             : 2011-01-04 08:09:57
Vendor                                   : Warner:isrc:US5540900008
iTunMOVI                                 : <?xml version="1.0" encoding="UTF-8"?> / <!DOCTYPE plist PUBLIC "-//Apple//DTD PLIST 1.0//EN" "http://www.apple.com/DTDs/PropertyList-1.0.dtd"> / <plist version="1.0"> / <dict> /   <key>asset-info</key> /   <dict> /     <key>file-size</key> /     <integer>10994415</integer> /     <key>flavor</key> /     <string>2:256</string> /   </dict> / </dict> / </plist>
Title/Sort                               : www.hoodoola.com

Audio
ID                                       : 1
Format                                   : AAC
Format/Info                              : Advanced Audio Codec
Format profile                           : LC
Codec ID                                 : 40
Duration                                 : 5mn 20s
Bit rate mode                            : Variable
Bit rate                                 : 256 Kbps
Maximum bit rate                         : 303 Kbps
Channel(s)                               : 2 channels
Channel positions                        : Front: L R
Sampling rate                            : 44.1 KHz
Compression mode                         : Lossy
Stream size                              : 9.90 MiB (94%)
Language                                 : English
Tagged date                              : UTC 2011-06-15 13:03:37

General
Complete name                            : D:\Sound\Music\Soundtracks\Watchmen\VA - Watchmen - OST (2009) [AAC]\12 Pirate Jenny (Live).m4a
Format                                   : MPEG-4
Format profile                           : Apple audio with iTunes info
Codec ID                                 : M4A
File size                                : 12.9 MiB
Duration                                 : 6mn 39s
Overall bit rate mode                    : Variable
Overall bit rate                         : 272 Kbps
Album                                    : Watchmen (Music from the Motion Picture)
Album/Performer                          : Various Artists
Part/Position                            : 1
Part/Total                               : 1
Track name                               : Pirate Jenny (Live)
Track name/Position                      : 12
Track name/Total                         : 12
Compilation                              : Yes
Performer                                : Nina Simone
Genre                                    : Filmmusik
ContentType                              : Music
Description                              : www.hoodoola.com
Recorded date                            : UTC 2009-02-24 08:00:00
Encoded date                             : UTC 2038-02-17 18:26:13
Tagged date                              : UTC 2011-06-15 13:03:37
Copyright                                : ℗ This Compilation P2009 Reprise Records.
Service name                             : iTunes
Cover                                    : Yes
Rating                                   : None
AppleStoreAccount                        : exact16@gmx.net
AppleStoreCatalogID                      : 305812101
AlbumTitleID                             : 79798
PlayListID                               : 305812005
GenreID                                  : 16
AppleStoreCountry                        : Germany
AppleStoreAccountType                    : iTunes
PurchaseDate                             : 2011-01-04 08:09:57
Vendor                                   : Warner:isrc:USPR36400089
iTunMOVI                                 : <?xml version="1.0" encoding="UTF-8"?> / <!DOCTYPE plist PUBLIC "-//Apple//DTD PLIST 1.0//EN" "http://www.apple.com/DTDs/PropertyList-1.0.dtd"> / <plist version="1.0"> / <dict> /   <key>asset-info</key> /   <dict> /     <key>file-size</key> /     <integer>13566846</integer> /     <key>flavor</key> /     <string>2:256</string> /   </dict> / </dict> / </plist>
Title/Sort                               : www.hoodoola.com

Audio
ID                                       : 1
Format                                   : AAC
Format/Info                              : Advanced Audio Codec
Format profile                           : LC
Codec ID                                 : 40
Duration                                 : 6mn 39s
Bit rate mode                            : Variable
Bit rate                                 : 256 Kbps
Maximum bit rate                         : 309 Kbps
Channel(s)                               : 2 channels
Channel positions                        : Front: L R
Sampling rate                            : 44.1 KHz
Compression mode                         : Lossy
Stream size                              : 12.3 MiB (95%)
Language                                 : English
Encoded date                             : UTC 2038-02-17 18:26:13
Tagged date                              : UTC 2011-06-15 13:03:37
Время раздачи: Сб-Вс с 09:00 до 23:30
[NNM-Club.me]_VA - Watchmen - OST (2009) [AAC].torrent
 Торрент: Платиновая раздача  Зарегистрирован
 
Скачать


Примагнититься
 Зарегистрирован:   18 Июл 2014 14:16:22
 Размер:   105 MB  (
 Рейтинг:   4,8 (Голосов: 27)
 Поблагодарили:   63
 Проверка:   Оформление проверено модератором 18 Июл 2014 14:58:48
Как cкачать  ·  Как раздать  ·  Правильно оформить  ·  Поднять ратио!  
igoryek ®
Стаж: 11 лет
Сообщений: 347
Ratio: 50,98
Поблагодарили: 22890
100%
релиз обновлен. извините за неудобства.
Timofey
Стаж: 5 лет 9 мес.
Сообщений: 30
Ratio: 17,226
Раздал: 8,751 TB
100%
pirates.png
А проигрыватель впихнуть нельзя? Как-то нет интереса качать то что даже не слышал, вдруг вообще ничего не понравится.
Показать сообщения:   
Начать новую тему   Ответить на тему    Торрент-трекер NNM-Club -> Аудио и Видео -> Музыка (AAC) Часовой пояс: GMT + 3
Страница 1 из 1