Классический форум-трекер
canvas not supported
Нас вместе: 4 093 509

Секретные территории. Апокалипсис. Обратный отсчет (2014.06.20) SATRip


 
 
RSS
Начать новую тему   Ответить на тему    Торрент-трекер NNM-Club -> Документалистика и Телепередачи -> Непознанное и сверхъестественное
Автор Сообщение
svlesin ®
Модератор Документалистики/TV
RG Releasers
Релизер 25000+ Uploader 300+
 
Стаж: 10 лет 2 мес.
Сообщений: 33802
Ratio: 1813,492
Поблагодарили: 3252650
100%
russia.gif
Секретные территории. Апокалипсис. Обратный отсчет (2014.06.20) SATRip
Режиссер / Телекомпания: РЕН
Русское название: Секретные территории
Год выпуска: 2014
Жанр: Документальный, научно-познавательный, исследование, мистика, альтернативная история, псевдоистория

Описание:
Секретные территории это цикл документальных расследований (из проекта РЕАЛЬНОСТЬ) о наиболее драматических событиях современности и её знаковых фигурах: деятельность спецслужб, тайные страницы истории, уникальные архивы, новые разработки, фантастические явления, которым нельзя найти объяснение (аномальные зоны, вещие сны, сверхъестественные способности человека и НЛО)… Сюжеты большинства программ — это сенсация или переворот. Своими секретами с авторами фильмов делятся политики, сотрудники спецслужб, бизнесмены и прочие участники событий. Объект программ — парадоксальные события, оставившие след в нашей истории, а также тайные пружины, которые подчас приводят в действие механизм нашей жизни.

Продолжительность: ~ 00:47:23

Видеокодек: DivX
Битрейт видео: ~1801 kb/s
Размер кадра: 720 x 400
Качество видео: SATRip
Аудиокодек: MP3, 2ch.
Битрейт аудио: 128 kb/s
Формат : AVI
Формат/Информация : Audio Video Interleave
Размер файла : 657 Мбайт
Продолжительность : 47 м.
Общий поток : 1938 Кбит/сек
Программа кодирования : VirtualDubMod 1.5.10.2 (build 2540/release)
Библиотека кодирования : VirtualDubMod build 2540/release

Видео
Идентификатор : 0
Формат : MPEG-4 Visual
Параметр BVOP формата : Нет
Параметр QPel формата : Нет
Параметр GMC формата : Без точки перехода
Параметр матрицы формата : Default (H.263)
Идентификатор кодека : DX50
Идентификатор кодека/Подсказка : DivX 5
Продолжительность : 47 м.
Битрейт : 1800 Кбит/сек
Ширина : 720 пикселей
Высота : 400 пикселей
Соотношение сторон : 16:9
Частота кадров : 25,000 кадров/сек
Цветовое пространство : YUV
Субдискретизация насыщенности : 4:2:0
Битовая глубина : 8 бит
Тип развёртки : Прогрессивная
Метод сжатия : С потерями
Бит/(Пиксели*Кадры) : 0.250
Размер потока : 610 Мбайт (93%)
Библиотека кодирования : DivX 6.8.5 (UTC 2009-08-20)

Аудио
Идентификатор : 1
Формат : MPEG Audio
Версия формата : Version 1
Профиль формата : Layer 3
Режим : Joint stereo
Идентификатор кодека : 55
Идентификатор кодека/Подсказка : MP3
Продолжительность : 47 м.
Вид битрейта : Постоянный
Битрейт : 128 Кбит/сек
Каналы : 2 канала
Частота : 48,0 КГц
Метод сжатия : С потерями
Размер потока : 43,4 Мбайт (7%)
Выравнивание : Соединение по промежуткам
Продолжительность промежутка : 40 мс. (1,00 видеокадр)
Время предзагрузки промежутка : 504 мс.
Скриншоты:
Время раздачи: 24/7. До первых 5 скачавших.
Rip by Хотт@быч
Секретные территории на NoNaMe Club
[NNM-Club.me]_Sekretnyie territorii. Apokalipsis. Obratnyiy otschet (2014.06.20).avi.torrent
 Торрент:   Зарегистрирован
 
Зарегистрируйтесь и скачайте торрент!
13,1 KB

Примагнититься
 Зарегистрирован:   20 Июн 2014 16:38:08
 Размер:   657 MB  (
 Рейтинг:   4,6 (Голосов: 61)
 Поблагодарили:   158
 Проверка:   Оформление проверено модератором 20 Июн 2014 16:38:38
Как cкачать  ·  Как раздать  ·  Правильно оформить  ·  Поднять ратио!  

_________________
Уважаемые пользователи Клуба! От меня релизов больше не будет. Может быть, буду поддерживать «Обновляемые раздачи». Спасибо всем, кто благодарил меня и говорил/нажимал «Спасибо»!
chuchunka
Стаж: 9 лет 4 мес.
Сообщений: 32
Ratio: 23,765
2.24%
ukraine.gif
Это - нечто. Лучшая кинокомедия текущего года. Великолепная подборка современных мифов:
Все океаны поднимутся на высоту 70 км, а потом обрушатся на нашу Землю....
Какие-то люди едят какие-то продукты, а потом в какое-то время БАЦ - и все...
Не примите за шутки, это цитаты из фильма.
Да и научные эксперты не отягощены словарным запасом и разговаривают на уровне сестер Кличко.
lewa1234
Стаж: 8 лет 8 мес.
Сообщений: 19
Ratio: 2,865
100%
russia.gif
А никто и не сомневается. Я просто под нее засыпаю отлично, вот и качаю))
bart481
Стаж: 7 лет
Сообщений: 79
Ratio: 14,333
Раздал: 4,915 TB
100%
russia.gif
то же люблю подремать под это дело))
как убаюкивающее средство - 5 звезд!)
Core-2
Стаж: 8 лет 8 мес.
Сообщений: 556
Ratio: 11,986
100%
Откуда: Амурка 28 Rus
ussr.gif
lewa1234,bart481 + 1

_________________
Браузер - это совместная разработка Браунинга и Маузера .
Показать сообщения:   
Начать новую тему   Ответить на тему    Торрент-трекер NNM-Club -> Документалистика и Телепередачи -> Непознанное и сверхъестественное Часовой пояс: GMT + 3
Страница 1 из 1