Классический форум-трекер
canvas not supported
Нас вместе: 4 078 032

Kult of Red Pyramid - 8 альбомов (2009-2014) [MP3|160-320 кб/с]<EBM / Dark Electro / Industrial / Experimental / Gothic Synth>


 
 
RSS
Начать новую тему   Ответить на тему    Торрент-трекер NNM-Club -> Electronic -> Industrial, EBM, Dark Electro
Автор Сообщение
Блейн Моно ®
Реставратор Клуба
Стаж: 8 лет 6 мес.
Сообщений: 3555
Ratio: 663,878
Поблагодарили: 6020
100%
Откуда: Эмпатика
antiguabarbuda.gif
Kult of Red Pyramid - 8 альбомов (2009-2014)

Год: 2009-2014
Жанр: EBM / Dark Electro / Industrial / Experimental / Gothic Synth
Продолжительность: 08:15:20

Кодек: MP3
Битрейт: 160-320 кб/с
Тип битрейта: CBR


Image
Битрейт: 320 kbps CBR
Прoдолжительность: 00:34:47
Треклист:

01. Dark Red Light (04:48)
02. Golgotha On River Mars (05:15)
03. Hell(o) (02:58)
04. Trapped (cyber mix - extended) (06:37)
05. Idle (03:27)
06. Bitch (04:25)
07. Unknown Forever (04:35)
08. Laura Palmer Is Dead (02:38)
Image
Битрейт: 320 kbps CBR
Прoдолжительность: 00:59:46
Треклист:

01. Cold (03:51)
02. The Secret (03:40)
03. Devil (05:20)
04. Last Chance (03:20)
05. Sleeping Beauty (04:04)
06. I'll Cut You (04:23)
07. Maybe (05:35)
08. Deep (05:02)
09. Corrosion Demonstration (06:07)
10. [Bludgeonpipe] (05:21)
11. Shell of Icon (03:12)
12. Not of this Earth (02:59)
13. Not Like You (03:08)
14. Void Zero (03:41)
Image
Битрейт: 320 kbps CBR
Прoдолжительность: 01:36:39
Треклист:

01. Everything Was Taken Away From Me (07:07)
02. Broken Mirror (05:45)
03. Burn (04:31)
04. The Wire (05:32)
05. Salt (03:33)
06. Sovereign (05:11)
07. Stillborn (04:00)
08. Haze (03:58)
09. Widow (05:19)
10. Somebody Did Something To My Child (04:28)
11. Epic (06:41)
12. Black Lotus and Heavy Rain (04:35)
13. Angel Blood (04:41)
14. Monster (04:27)
15. Lure 2014 (03:29)
16. Stacheldraht 2014 (04:45)
17. Here Comes The Tide (06:24)
18. Abnormal Beauty (version) (03:16)
19. Now (03:43)
20. Your Night (version) (05:05)
Для хорватских музыкантов из проекта Kult of Red Pyramid работа "Broken Mirror" не является дебютным усилием, поскольку еще в 2012 году группа из Загреба выпустила свой пионерский альбом "Void Zero". Тем не менее, именно в отрыве от первоначального материала можно ощутить, насколько вперед и вверх продвинулись товарищи Иван и Иосип. Технический и исполнительный прогресс на лицо, так как внутри и на поверхности исчезли грубые прямолинейности дебютника, а вместо этого творение "Broken Mirror" культивировало в себе столь значимую на сегодняшний день многогранность.
Сами участники Kult of Red Pyramid не скрывали в своем официальном пресс-релизе, что новый альбом станет для них лучшим воплощением накопленных за несколько лет кубометров вдохновений:"This album is our magnum opus, the best production we ever recorded, mixed and mastered – EVER". Сказано эффектно, но еще более "эффектным" видится то, что накапливание идей вылилось в неудержимый поток креативных изощрений, что привело к небывалой объемности материала. По факту, это главный, если не недостаток, то просчет хорватских исполнителей, ибо не каждый человек на принципиально психологически-ментальном уровне способен физически за раз хапнуть 90 с гаком минут музыкального хронометража, и при этом еще постичь все внутренние ценности и нюансы "Broken Mirror". Следует, наверное, быть готовым к тому, что данный релиз – для удобного пищеварения – лучше слушать в два захода. Что же касается ядра нового альбома, то как и было сказано раннее Kult of Red Pyramid фактически достигли своего апогея в наполнении личных композиций выстроенным мелодизмом, яркими синтетическими аранжировками, и не рутинными настроениями. Первая треть альбома является важным крючком внимания, условный "attention getter" который показывает лицо и поверхностный нрав современного проекта из Загреба: динамичные и напористые "Broken Mirror" и "Burn" идут наравне со среднетемповыми "Sovereign" и "The Wire". Середина альбома, в некотором смысле, провисает, поскольку отныне Kult of Red Pyramid показывает свою меланхоличную и душевную сторону: здесь больше darkwave твистов и лиричных мелодий вроде "Stillborn", "Haze", или "Widow". Тут имеет место быть некая волна затянутости, поскольку общий фон упадка и флегматичности действительно замедляет слушателя в его способности улавливать разницу между одной балладной композицией от другой подобной. Но начиная с "Angel Blood", синусоида вновь идет вверх, и боевой дух Kult of Red Pyramid снова требует сакральной идейной жертвы; поэтому, прямолинейные, индустриально-настроенные и энергичные треки вроде "Monster" или "Stacheldraht" служат хорошим подсознательным будильником. Концовка "Broken Mirror" снова пускается в вязкость и неторопливость, впрочем как и подобает достойному эпилогу в большой музыкальной адвенчуре по закоулкам темного непознанного сознания.
Разнообразие среди представленных треков и, самое важное, различные оттенки жанрового настроения – ключевое достоинство "Broken Mirror". Это неудивительно, поскольку сами музыканты черпали свое вдохновение из музыки Paradise Lost, Dead Can Dance, Ministry, Killing Joke, Bauhaus, Sisters Of Mercy, Coil и многих других представителей шварце сцены. Посему, треки пестрят стилевыми окрасами synthpop, gothic synth, darkwave, electro industrial, electrogoth, и gothic rock. К слову, дабы как-то укротить наплыв разных аудио потоков, сами хорваты обозвали свое творчество термином "doom pop", но насколько он приживется в субкультурной среде - это нужно еще посмотреть. В целом, можно сказать что альбом "Broken Mirror" – это красивый и много-ступенчатый материал с хитовыми проявлениями в разных суб-категориях темной сцены; но его обильный хронометраж, а также некоторая условная "проседаемость" и неровность изложения слегка убивают общий эффект иммерсии. Хотя, с другой стороны, большой обхват может быть для вас плюсом в том смысле, что есть и больший выбор среди возможных опций. Внимания аудитории, тем не менее, "Broken Mirror" заслуживает вполне обосновано, ибо альбом должен удовлетворить интересы как любителей синтетической жесткости, так и ейной мягкотелости.

Оценка: 8,5/10
Image
Битрейт: 320 kbps CBR
Прoдолжительность: 00:22:52
Треклист:

01. Angel Blood (radio edit) (04:38)
02. Gone (radio edit) (03:37)
03. Bittersweet Life (05:19)
04. Monster (04:25)
05. Cold as the Grave (04:51)
Image
Битрейт: 320 kbps CBR
Прoдолжительность: 00:17:17
Треклист:

01. Break Out (05:18)
02. Love Without Hate (05:02)
03. Poor White Girl Plays the Violin (06:56)
Image
Битрейт: 320 kbps CBR
Прoдолжительность: 00:41:49
Треклист:

01. Somebody Did Something To My Child (04:29)
02. EPIC (06:37)
03. Black Lotus and Heavy Rain (04:39)
04. Handful of Rain (04:21)
05. Now (03:48)
06. Warm Wind (06:21)
07. Here Comes The Tide (06:26)
08. Your Night (version) (05:05)
Image
Битрейт: 320 kbps CBR
Прoдолжительность: 00:25:17
Треклист:

01. Sick Life (06:23)
02. Blackwater Memoirs (05:23)
03. Wild Flowers (04:22)
04. Elena of the River (04:00)
05. Malice and Corruption (05:06)
Image
Битрейт: 160-192 kbps CBR
Прoдолжительность: 03:17:33

CD 1
Прoдолжительность: 00:58:17
Треклист:

01. Bloody beds - hating sheets (09:54)
02. Take me somewhere,far from here (05:17)
03. Blood spattered feelings (08:57)
04. Heart on a plate (05:37)
05. Descending kisses (03:26)
06. Death in the fields (04:52)
07. Just for you (05:09)
08. Pain of ego (05:43)
09. Antihuman (04:09)
10. Sky_Net (05:09)
Код:

Общее
Полное имя                               : F:\pravka\Kult Of Red Pyramid  (2009 - 2014)\Compilation\2009 - Red-eyed Machinery (3CD)\CD1\01 - Bloody Beds - Hating Sheets.mp3
Формат                                   : MPEG Audio
Размер файла                             : 11,3 Мбайт
Продолжительность                        : 9 м. 54 с.
Режим общего битрейта                    : Постоянный
Общий поток                              : 160 Кбит/сек
Альбом                                   : Red eyed machinery
Альбом/Исполнитель                       : Kult Of Red Pyramid
Часть/Положение                          : 1
Трек                                     : Bloody beds - hating sheets
Трек/Положение                           : 1
Исполнитель                              : Kult Of Red Pyramid
Композитор                               : Kult Of Red Pyramid
Издатель                                 : Kult Of Red Pyramid
Жанр                                     : Other
Дата записи                              : 2009
Примечание                               : www.kultofredpyramid.com

Аудио
Формат                                   : MPEG Audio
Версия формата                           : Version 1
Профиль формата                          : Layer 3
Продолжительность                        : 9 м. 55 с.
Вид битрейта                             : Постоянный
Битрейт                                  : 160 Кбит/сек
Каналы                                   : 2 канала
Частота                                  : 44,1 КГц
Метод сжатия                             : С потерями
Размер потока                            : 11,3 Мбайт (100%)

Общее
Полное имя                               : F:\pravka\Kult Of Red Pyramid  (2009 - 2014)\Compilation\2009 - Red-eyed Machinery (3CD)\CD1\02 - Take Me Somewhere Far From Here.mp3
Формат                                   : MPEG Audio
Размер файла                             : 6,05 Мбайт
Продолжительность                        : 5 м. 17 с.
Режим общего битрейта                    : Постоянный
Общий поток                              : 160 Кбит/сек
Альбом                                   : Red eyed machinery
Альбом/Исполнитель                       : Kult Of Red Pyramid
Часть/Положение                          : 1
Трек                                     : Take me somewhere,far from here
Трек/Положение                           : 2
Исполнитель                              : Kult Of Red Pyramid
Композитор                               : Kult Of Red Pyramid
Издатель                                 : Kult Of Red Pyramid
Жанр                                     : Other
Дата записи                              : 2009
Примечание                               : www.kultofredpyramid.com

Аудио
Формат                                   : MPEG Audio
Версия формата                           : Version 1
Профиль формата                          : Layer 3
Режим                                    : Joint stereo
Продолжительность                        : 5 м. 17 с.
Вид битрейта                             : Постоянный
Битрейт                                  : 160 Кбит/сек
Каналы                                   : 2 канала
Частота                                  : 44,1 КГц
Метод сжатия                             : С потерями
Размер потока                            : 6,05 Мбайт (100%)

Общее
Полное имя                               : F:\pravka\Kult Of Red Pyramid  (2009 - 2014)\Compilation\2009 - Red-eyed Machinery (3CD)\CD1\03 - Blood Spattered Feelings.mp3
Формат                                   : MPEG Audio
Размер файла                             : 10,2 Мбайт
Продолжительность                        : 8 м. 57 с.
Режим общего битрейта                    : Постоянный
Общий поток                              : 160 Кбит/сек
Альбом                                   : Red eyed machinery
Альбом/Исполнитель                       : Kult Of Red Pyramid
Часть/Положение                          : 1
Трек                                     : Blood spattered feelings
Трек/Положение                           : 3
Исполнитель                              : Kult Of Red Pyramid
Композитор                               : Kult Of Red Pyramid
Издатель                                 : Kult Of Red Pyramid
Жанр                                     : Other
Дата записи                              : 2009
Примечание                               : www.kultofredpyramid.com

Аудио
Формат                                   : MPEG Audio
Версия формата                           : Version 1
Профиль формата                          : Layer 3
Продолжительность                        : 8 м. 57 с.
Вид битрейта                             : Постоянный
Битрейт                                  : 160 Кбит/сек
Каналы                                   : 2 канала
Частота                                  : 44,1 КГц
Метод сжатия                             : С потерями
Размер потока                            : 10,2 Мбайт (100%)

Общее
Полное имя                               : F:\pravka\Kult Of Red Pyramid  (2009 - 2014)\Compilation\2009 - Red-eyed Machinery (3CD)\CD1\04 - Heart On A Plate.mp3
Формат                                   : MPEG Audio
Размер файла                             : 6,43 Мбайт
Продолжительность                        : 5 м. 37 с.
Режим общего битрейта                    : Постоянный
Общий поток                              : 160 Кбит/сек
Альбом                                   : Red eyed machinery
Альбом/Исполнитель                       : Kult Of Red Pyramid
Часть/Положение                          : 1
Трек                                     : Heart on a plate
Трек/Положение                           : 4
Исполнитель                              : Kult Of Red Pyramid
Композитор                               : Kult Of Red Pyramid
Издатель                                 : Kult Of Red Pyramid
Жанр                                     : Other
Дата записи                              : 2009
Примечание                               : www.kultofredpyramid.com

Аудио
Формат                                   : MPEG Audio
Версия формата                           : Version 1
Профиль формата                          : Layer 3
Продолжительность                        : 5 м. 37 с.
Вид битрейта                             : Постоянный
Битрейт                                  : 160 Кбит/сек
Каналы                                   : 2 канала
Частота                                  : 44,1 КГц
Метод сжатия                             : С потерями
Размер потока                            : 6,43 Мбайт (100%)

Общее
Полное имя                               : F:\pravka\Kult Of Red Pyramid  (2009 - 2014)\Compilation\2009 - Red-eyed Machinery (3CD)\CD1\05 - Descending Kisses.mp3
Формат                                   : MPEG Audio
Размер файла                             : 3,93 Мбайт
Продолжительность                        : 3 м. 26 с.
Режим общего битрейта                    : Постоянный
Общий поток                              : 160 Кбит/сек
Альбом                                   : Red eyed machinery
Альбом/Исполнитель                       : Kult Of Red Pyramid
Часть/Положение                          : 1
Трек                                     : Descending kisses
Трек/Положение                           : 5
Исполнитель                              : Kult Of Red Pyramid
Композитор                               : Kult Of Red Pyramid
Издатель                                 : Kult Of Red Pyramid
Жанр                                     : Other
Дата записи                              : 2009
Примечание                               : www.kultofredpyramid.com

Аудио
Формат                                   : MPEG Audio
Версия формата                           : Version 1
Профиль формата                          : Layer 3
Продолжительность                        : 3 м. 26 с.
Вид битрейта                             : Постоянный
Битрейт                                  : 160 Кбит/сек
Каналы                                   : 2 канала
Частота                                  : 44,1 КГц
Метод сжатия                             : С потерями
Размер потока                            : 3,93 Мбайт (100%)

Общее
Полное имя                               : F:\pravka\Kult Of Red Pyramid  (2009 - 2014)\Compilation\2009 - Red-eyed Machinery (3CD)\CD1\06 - Death In the Fields.mp3
Формат                                   : MPEG Audio
Размер файла                             : 5,58 Мбайт
Продолжительность                        : 4 м. 52 с.
Режим общего битрейта                    : Постоянный
Общий поток                              : 160 Кбит/сек
Альбом                                   : Red eyed machinery
Альбом/Исполнитель                       : Kult Of Red Pyramid
Часть/Положение                          : 1
Трек                                     : Death in the fields
Трек/Положение                           : 6
Исполнитель                              : Kult Of Red Pyramid
Композитор                               : Kult Of Red Pyramid
Издатель                                 : Kult Of Red Pyramid
Жанр                                     : Other
Дата записи                              : 2009
Примечание                               : www.kultofredpyramid.com

Аудио
Формат                                   : MPEG Audio
Версия формата                           : Version 1
Профиль формата                          : Layer 3
Продолжительность                        : 4 м. 52 с.
Вид битрейта                             : Постоянный
Битрейт                                  : 160 Кбит/сек
Каналы                                   : 2 канала
Частота                                  : 44,1 КГц
Метод сжатия                             : С потерями
Размер потока                            : 5,58 Мбайт (100%)

Общее
Полное имя                               : F:\pravka\Kult Of Red Pyramid  (2009 - 2014)\Compilation\2009 - Red-eyed Machinery (3CD)\CD1\07 - Just For You.mp3
Формат                                   : MPEG Audio
Размер файла                             : 5,91 Мбайт
Продолжительность                        : 5 м. 9 с.
Режим общего битрейта                    : Постоянный
Общий поток                              : 160 Кбит/сек
Альбом                                   : Red eyed machinery
Альбом/Исполнитель                       : Kult of red pyramid
Часть/Положение                          : 1
Трек                                     : Just for you
Трек/Положение                           : 7
Исполнитель                              : Kult of red pyramid
Композитор                               : Kult Of Red Pyramid
Издатель                                 : Kult Of Red Pyramid
Жанр                                     : Industrial
Дата записи                              : 2009
Примечание                               : www.kultofredpyramid.com

Аудио
Формат                                   : MPEG Audio
Версия формата                           : Version 1
Профиль формата                          : Layer 3
Продолжительность                        : 5 м. 10 с.
Вид битрейта                             : Постоянный
Битрейт                                  : 160 Кбит/сек
Каналы                                   : 2 канала
Частота                                  : 44,1 КГц
Метод сжатия                             : С потерями
Размер потока                            : 5,91 Мбайт (100%)

Общее
Полное имя                               : F:\pravka\Kult Of Red Pyramid  (2009 - 2014)\Compilation\2009 - Red-eyed Machinery (3CD)\CD1\08 - Pain of Ego.mp3
Формат                                   : MPEG Audio
Размер файла                             : 6,55 Мбайт
Продолжительность                        : 5 м. 43 с.
Режим общего битрейта                    : Постоянный
Общий поток                              : 160 Кбит/сек
Альбом                                   : Red eyed machinery
Альбом/Исполнитель                       : Kult Of Red Pyramid
Часть/Положение                          : 1
Трек                                     : Pain of ego
Трек/Положение                           : 8
Исполнитель                              : Kult Of Red Pyramid
Композитор                               : Kult Of Red Pyramid
Издатель                                 : Kult Of Red Pyramid
Жанр                                     : Other
Дата записи                              : 2009
Примечание                               : www.kultofredpyramid.com

Аудио
Формат                                   : MPEG Audio
Версия формата                           : Version 1
Профиль формата                          : Layer 3
Продолжительность                        : 5 м. 43 с.
Вид битрейта                             : Постоянный
Битрейт                                  : 160 Кбит/сек
Каналы                                   : 2 канала
Частота                                  : 44,1 КГц
Метод сжатия                             : С потерями
Размер потока                            : 6,55 Мбайт (100%)

Общее
Полное имя                               : F:\pravka\Kult Of Red Pyramid  (2009 - 2014)\Compilation\2009 - Red-eyed Machinery (3CD)\CD1\09 - Antihuman.mp3
Формат                                   : MPEG Audio
Размер файла                             : 5,72 Мбайт
Продолжительность                        : 4 м. 9 с.
Режим общего битрейта                    : Постоянный
Общий поток                              : 192 Кбит/сек
Альбом                                   : Red eyed machinery
Альбом/Исполнитель                       : Kult Of Red Pyramid
Часть/Положение                          : 1
Трек                                     : Antihuman
Трек/Положение                           : 9
Исполнитель                              : Kult Of Red Pyramid
Композитор                               : Kult Of Red Pyramid
Издатель                                 : Kult Of Red Pyramid
Жанр                                     : Other
Дата записи                              : 2009
Примечание                               : www.kultofredpyramid.com

Аудио
Формат                                   : MPEG Audio
Версия формата                           : Version 1
Профиль формата                          : Layer 3
Режим                                    : Joint stereo
Продолжительность                        : 4 м. 10 с.
Вид битрейта                             : Постоянный
Битрейт                                  : 192 Кбит/сек
Каналы                                   : 2 канала
Частота                                  : 44,1 КГц
Метод сжатия                             : С потерями
Размер потока                            : 5,72 Мбайт (100%)

Общее
Полное имя                               : F:\pravka\Kult Of Red Pyramid  (2009 - 2014)\Compilation\2009 - Red-eyed Machinery (3CD)\CD1\10 - Sky_Net.mp3
Формат                                   : MPEG Audio
Размер файла                             : 7,09 Мбайт
Продолжительность                        : 5 м. 9 с.
Режим общего битрейта                    : Постоянный
Общий поток                              : 192 Кбит/сек
Альбом                                   : Red eyed machinery
Альбом/Исполнитель                       : Kult Of Red Pyramid
Часть/Положение                          : 1
Трек                                     : Sky_Net
Трек/Положение                           : 10
Исполнитель                              : Kult Of Red Pyramid
Композитор                               : Kult Of Red Pyramid
Издатель                                 : Kult Of Red Pyramid
Жанр                                     : Other
Дата записи                              : 2009
Примечание                               : www.kultofredpyramid.com

Аудио
Формат                                   : MPEG Audio
Версия формата                           : Version 1
Профиль формата                          : Layer 3
Режим                                    : Joint stereo
Продолжительность                        : 5 м. 10 с.
Вид битрейта                             : Постоянный
Битрейт                                  : 192 Кбит/сек
Каналы                                   : 2 канала
Частота                                  : 44,1 КГц
Метод сжатия                             : С потерями
Размер потока                            : 7,09 Мбайт (100%)

Прoдолжительность: 01:07:27
Треклист:

01. Blood (02:35)
02. Silent night with darkened eyes I (07:25)
03. Silent night with darkened eyes II (06:27)
04. Mirror/face (10:36)
05. A narrow long corridor (06:06)
06. Into a darkest dream (06:02)
07. Death blossoms in your garden (11:04)
08. Dominions (04:46)
09. Mirror of time (08:37)
10. Pastures green (03:46)
Код:

Общее
Полное имя                               : F:\pravka\Kult Of Red Pyramid  (2009 - 2014)\Compilation\2009 - Red-eyed Machinery (3CD)\CD2\01 - Blood.mp3
Формат                                   : MPEG Audio
Размер файла                             : 3,57 Мбайт
Продолжительность                        : 2 м. 35 с.
Режим общего битрейта                    : Постоянный
Общий поток                              : 192 Кбит/сек
Альбом                                   : Red eyed machinery
Альбом/Исполнитель                       : Kult Of Red Pyramid
Часть/Положение                          : 2
Трек                                     : Blood
Трек/Положение                           : 1
Исполнитель                              : Kult Of Red Pyramid
Композитор                               : Kult Of Red Pyramid
Издатель                                 : Kult Of Red Pyramid
Жанр                                     : Other
Дата записи                              : 2009
Примечание                               : www.kultofredpyramid.com

Аудио
Формат                                   : MPEG Audio
Версия формата                           : Version 1
Профиль формата                          : Layer 3
Режим                                    : Joint stereo
Продолжительность                        : 2 м. 35 с.
Вид битрейта                             : Постоянный
Битрейт                                  : 192 Кбит/сек
Каналы                                   : 2 канала
Частота                                  : 44,1 КГц
Метод сжатия                             : С потерями
Размер потока                            : 3,56 Мбайт (100%)

Общее
Полное имя                               : F:\pravka\Kult Of Red Pyramid  (2009 - 2014)\Compilation\2009 - Red-eyed Machinery (3CD)\CD2\02 - Silent Night With Darkened Eyes(Sight Over Endless Ice).mp3
Формат                                   : MPEG Audio
Размер файла                             : 8,50 Мбайт
Продолжительность                        : 7 м. 25 с.
Режим общего битрейта                    : Постоянный
Общий поток                              : 160 Кбит/сек
Альбом                                   : Red eyed machinery
Альбом/Исполнитель                       : Kult Of Red Pyramid
Часть/Положение                          : 2
Трек                                     : Silent night with darkened eyes I
Трек/Положение                           : 2
Исполнитель                              : Kult Of Red Pyramid
Композитор                               : Kult Of Red Pyramid
Издатель                                 : Kult Of Red Pyramid
Жанр                                     : Other
Дата записи                              : 2009
Примечание                               : www.kultofredpyramid.com

Аудио
Формат                                   : MPEG Audio
Версия формата                           : Version 1
Профиль формата                          : Layer 3
Продолжительность                        : 7 м. 25 с.
Вид битрейта                             : Постоянный
Битрейт                                  : 160 Кбит/сек
Каналы                                   : 2 канала
Частота                                  : 44,1 КГц
Метод сжатия                             : С потерями
Размер потока                            : 8,50 Мбайт (100%)

Общее
Полное имя                               : F:\pravka\Kult Of Red Pyramid  (2009 - 2014)\Compilation\2009 - Red-eyed Machinery (3CD)\CD2\03 - Silent Night With Darkened Eyes(Doom over antarctica).mp3
Формат                                   : MPEG Audio
Размер файла                             : 7,38 Мбайт
Продолжительность                        : 6 м. 27 с.
Режим общего битрейта                    : Постоянный
Общий поток                              : 160 Кбит/сек
Альбом                                   : Red eyed machinery
Альбом/Исполнитель                       : Kult Of Red Pyramid
Часть/Положение                          : 2
Трек                                     : Silent night with darkened eyes II
Трек/Положение                           : 3
Исполнитель                              : Kult Of Red Pyramid
Композитор                               : Kult Of Red Pyramid
Издатель                                 : Kult Of Red Pyramid
Жанр                                     : Other
Дата записи                              : 2009
Примечание                               : www.kultofredpyramid.com

Аудио
Формат                                   : MPEG Audio
Версия формата                           : Version 1
Профиль формата                          : Layer 3
Продолжительность                        : 6 м. 27 с.
Вид битрейта                             : Постоянный
Битрейт                                  : 160 Кбит/сек
Каналы                                   : 2 канала
Частота                                  : 44,1 КГц
Метод сжатия                             : С потерями
Размер потока                            : 7,38 Мбайт (100%)

Общее
Полное имя                               : F:\pravka\Kult Of Red Pyramid  (2009 - 2014)\Compilation\2009 - Red-eyed Machinery (3CD)\CD2\04 - Mirror-Face.mp3
Формат                                   : MPEG Audio
Размер файла                             : 12,1 Мбайт
Продолжительность                        : 10 м.
Режим общего битрейта                    : Постоянный
Общий поток                              : 160 Кбит/сек
Альбом                                   : Red eyed machinery
Альбом/Исполнитель                       : Kult Of Red Pyramid
Часть/Положение                          : 2
Трек                                     : Mirror/face
Трек/Положение                           : 4
Исполнитель                              : Kult Of Red Pyramid
Композитор                               : Kult Of Red Pyramid
Издатель                                 : Kult Of Red Pyramid
Жанр                                     : Other
Дата записи                              : 2009
Примечание                               : www.kultofredpyramid.com

Аудио
Формат                                   : MPEG Audio
Версия формата                           : Version 1
Профиль формата                          : Layer 3
Продолжительность                        : 10 м.
Вид битрейта                             : Постоянный
Битрейт                                  : 160 Кбит/сек
Каналы                                   : 2 канала
Частота                                  : 44,1 КГц
Метод сжатия                             : С потерями
Размер потока                            : 12,1 Мбайт (100%)

Общее
Полное имя                               : F:\pravka\Kult Of Red Pyramid  (2009 - 2014)\Compilation\2009 - Red-eyed Machinery (3CD)\CD2\05 - A Narrow Long Corridor.mp3
Формат                                   : MPEG Audio
Размер файла                             : 6,99 Мбайт
Продолжительность                        : 6 м. 6 с.
Режим общего битрейта                    : Постоянный
Общий поток                              : 160 Кбит/сек
Альбом                                   : Red eyed machinery
Альбом/Исполнитель                       : Kult Of Red Pyramid
Часть/Положение                          : 2
Трек                                     : A narrow long corridor
Трек/Положение                           : 5
Исполнитель                              : Kult Of Red Pyramid
Композитор                               : Kult Of Red Pyramid
Издатель                                 : Kult Of Red Pyramid
Жанр                                     : Other
Дата записи                              : 2009
Примечание                               : www.kultofredpyramid.com

Аудио
Формат                                   : MPEG Audio
Версия формата                           : Version 1
Профиль формата                          : Layer 3
Продолжительность                        : 6 м. 6 с.
Вид битрейта                             : Постоянный
Битрейт                                  : 160 Кбит/сек
Каналы                                   : 2 канала
Частота                                  : 44,1 КГц
Метод сжатия                             : С потерями
Размер потока                            : 6,99 Мбайт (100%)

Общее
Полное имя                               : F:\pravka\Kult Of Red Pyramid  (2009 - 2014)\Compilation\2009 - Red-eyed Machinery (3CD)\CD2\06 - Into A Darkest Dream.mp3
Формат                                   : MPEG Audio
Размер файла                             : 6,92 Мбайт
Продолжительность                        : 6 м. 2 с.
Режим общего битрейта                    : Постоянный
Общий поток                              : 160 Кбит/сек
Альбом                                   : Red eyed machinery
Альбом/Исполнитель                       : Kult Of Red Pyramid
Часть/Положение                          : 2
Трек                                     : Into a darkest dream
Трек/Положение                           : 6
Исполнитель                              : Kult Of Red Pyramid
Композитор                               : Kult Of Red Pyramid
Издатель                                 : Kult Of Red Pyramid
Жанр                                     : Other
Дата записи                              : 2009
Примечание                               : www.kultofredpyramid.com

Аудио
Формат                                   : MPEG Audio
Версия формата                           : Version 1
Профиль формата                          : Layer 3
Продолжительность                        : 6 м. 2 с.
Вид битрейта                             : Постоянный
Битрейт                                  : 160 Кбит/сек
Каналы                                   : 2 канала
Частота                                  : 44,1 КГц
Метод сжатия                             : С потерями
Размер потока                            : 6,91 Мбайт (100%)

Общее
Полное имя                               : F:\pravka\Kult Of Red Pyramid  (2009 - 2014)\Compilation\2009 - Red-eyed Machinery (3CD)\CD2\07 - Death Blossoms In Your Garden.mp3
Формат                                   : MPEG Audio
Размер файла                             : 12,7 Мбайт
Продолжительность                        : 11 м.
Режим общего битрейта                    : Постоянный
Общий поток                              : 160 Кбит/сек
Альбом                                   : Red eyed machinery
Альбом/Исполнитель                       : Kult of red pyramid
Часть/Положение                          : 2
Трек                                     : Death blossoms in your garden
Трек/Положение                           : 7
Исполнитель                              : Kult of red pyramid
Композитор                               : Kult Of Red Pyramid
Издатель                                 : Kult Of Red Pyramid
Жанр                                     : Other
Дата записи                              : 2009
Примечание                               : www.kultofredpyramid.com

Аудио
Формат                                   : MPEG Audio
Версия формата                           : Version 1
Профиль формата                          : Layer 3
Продолжительность                        : 11 м.
Вид битрейта                             : Постоянный
Битрейт                                  : 160 Кбит/сек
Каналы                                   : 2 канала
Частота                                  : 44,1 КГц
Метод сжатия                             : С потерями
Размер потока                            : 12,7 Мбайт (100%)

Общее
Полное имя                               : F:\pravka\Kult Of Red Pyramid  (2009 - 2014)\Compilation\2009 - Red-eyed Machinery (3CD)\CD2\08 - Dominions.mp3
Формат                                   : MPEG Audio
Размер файла                             : 5,46 Мбайт
Продолжительность                        : 4 м. 46 с.
Режим общего битрейта                    : Постоянный
Общий поток                              : 160 Кбит/сек
Альбом                                   : Red Eyed Machinery
Альбом/Исполнитель                       : Kult of red pyramid
Часть/Положение                          : 2
Трек                                     : Dominions
Трек/Положение                           : 8
Исполнитель                              : Kult of red pyramid
Композитор                               : Kult of red pyramid
Издатель                                 : Kult of red pyramid
Жанр                                     : Other
Дата записи                              : 2009
Примечание                               : www.kultofredpyramid.com

Аудио
Формат                                   : MPEG Audio
Версия формата                           : Version 1
Профиль формата                          : Layer 3
Продолжительность                        : 4 м. 46 с.
Вид битрейта                             : Постоянный
Битрейт                                  : 160 Кбит/сек
Каналы                                   : 2 канала
Частота                                  : 44,1 КГц
Метод сжатия                             : С потерями
Размер потока                            : 5,46 Мбайт (100%)

Общее
Полное имя                               : F:\pravka\Kult Of Red Pyramid  (2009 - 2014)\Compilation\2009 - Red-eyed Machinery (3CD)\CD2\09 - Mirror of Time.mp3
Формат                                   : MPEG Audio
Размер файла                             : 11,8 Мбайт
Продолжительность                        : 8 м. 37 с.
Режим общего битрейта                    : Постоянный
Общий поток                              : 192 Кбит/сек
Альбом                                   : Red eyed machinery
Альбом/Исполнитель                       : Kult Of Red Pyramid
Часть/Положение                          : 2
Трек                                     : Mirror of time
Трек/Положение                           : 9
Исполнитель                              : Kult Of Red Pyramid
Композитор                               : Kult Of Red Pyramid
Издатель                                 : Kult Of Red Pyramid
Жанр                                     : Other
Дата записи                              : 2009
Примечание                               : www.kultofredpyramid.com

Аудио
Формат                                   : MPEG Audio
Версия формата                           : Version 1
Профиль формата                          : Layer 3
Продолжительность                        : 8 м. 38 с.
Вид битрейта                             : Постоянный
Битрейт                                  : 192 Кбит/сек
Каналы                                   : 2 канала
Частота                                  : 44,1 КГц
Метод сжатия                             : С потерями
Размер потока                            : 11,8 Мбайт (100%)

Общее
Полное имя                               : F:\pravka\Kult Of Red Pyramid  (2009 - 2014)\Compilation\2009 - Red-eyed Machinery (3CD)\CD2\10 - Pastures Green.mp3
Формат                                   : MPEG Audio
Размер файла                             : 4,31 Мбайт
Продолжительность                        : 3 м. 46 с.
Режим общего битрейта                    : Постоянный
Общий поток                              : 160 Кбит/сек
Альбом                                   : Red eyed machinery
Альбом/Исполнитель                       : Kult Of Red Pyramid
Часть/Положение                          : 2
Трек                                     : Pastures green
Трек/Положение                           : 10
Исполнитель                              : Kult Of Red Pyramid
Композитор                               : Kult Of Red Pyramid
Издатель                                 : Kult Of Red Pyramid
Жанр                                     : Other
Дата записи                              : 2009
Примечание                               : www.kultofredpyramid.com

Аудио
Формат                                   : MPEG Audio
Версия формата                           : Version 1
Профиль формата                          : Layer 3
Продолжительность                        : 3 м. 46 с.
Вид битрейта                             : Постоянный
Битрейт                                  : 160 Кбит/сек
Каналы                                   : 2 канала
Частота                                  : 44,1 КГц
Метод сжатия                             : С потерями
Размер потока                            : 4,31 Мбайт (100%)
Прoдолжительность: 01:11:49
Треклист:

01. Valentine (06:02)
02. Hexen (10:30)
03. They're selling drugs to your children on the streets (04:45)
04. Death calls (11:18)
05. Blood scarab (05:48)
06. Gathering for the feast (06:27)
07. Spidergod (06:30)
08. The doom parade (10:43)
09. Frail dreaming (05:15)
10. It all ends tonight (04:25)
Код:

Общее
Полное имя                               : F:\pravka\Kult Of Red Pyramid  (2009 - 2014)\Compilation\2009 - Red-eyed Machinery (3CD)\CD3\01 - Valentine.mp3
Формат                                   : MPEG Audio
Размер файла                             : 6,92 Мбайт
Продолжительность                        : 6 м. 2 с.
Режим общего битрейта                    : Постоянный
Общий поток                              : 160 Кбит/сек
Альбом                                   : Red eyed machinery
Альбом/Исполнитель                       : Kult Of Red Pyramid
Часть/Положение                          : 3
Трек                                     : Valentine
Трек/Положение                           : 1
Исполнитель                              : Kult Of Red Pyramid
Композитор                               : Kult Of Red Pyramid
Издатель                                 : Kult Of Red Pyramid
Жанр                                     : Epic industrial doom metal
Дата записи                              : 2009
Примечание                               : www.kultofredpyramid.com

Аудио
Формат                                   : MPEG Audio
Версия формата                           : Version 1
Профиль формата                          : Layer 3
Продолжительность                        : 6 м. 3 с.
Вид битрейта                             : Постоянный
Битрейт                                  : 160 Кбит/сек
Каналы                                   : 2 канала
Частота                                  : 44,1 КГц
Метод сжатия                             : С потерями
Размер потока                            : 6,92 Мбайт (100%)

Общее
Полное имя                               : F:\pravka\Kult Of Red Pyramid  (2009 - 2014)\Compilation\2009 - Red-eyed Machinery (3CD)\CD3\02 - Hexen.mp3
Формат                                   : MPEG Audio
Размер файла                             : 12,0 Мбайт
Продолжительность                        : 10 м.
Режим общего битрейта                    : Постоянный
Общий поток                              : 160 Кбит/сек
Альбом                                   : Red eyed machinery
Альбом/Исполнитель                       : Kult Of Red Pyramid
Часть/Положение                          : 3
Трек                                     : Hexen
Трек/Положение                           : 2
Исполнитель                              : Kult Of Red Pyramid
Композитор                               : Kult Of Red Pyramid
Издатель                                 : Kult Of Red Pyramid
Жанр                                     : Other
Дата записи                              : 2009
Примечание                               : www.kultofredpyramid.com

Аудио
Формат                                   : MPEG Audio
Версия формата                           : Version 1
Профиль формата                          : Layer 3
Продолжительность                        : 10 м.
Вид битрейта                             : Постоянный
Битрейт                                  : 160 Кбит/сек
Каналы                                   : 2 канала
Частота                                  : 44,1 КГц
Метод сжатия                             : С потерями
Размер потока                            : 12,0 Мбайт (100%)

Общее
Полное имя                               : F:\pravka\Kult Of Red Pyramid  (2009 - 2014)\Compilation\2009 - Red-eyed Machinery (3CD)\CD3\03 - They're Selling Drugs To Your Children On the Streets.mp3
Формат                                   : MPEG Audio
Размер файла                             : 5,44 Мбайт
Продолжительность                        : 4 м. 45 с.
Режим общего битрейта                    : Постоянный
Общий поток                              : 160 Кбит/сек
Альбом                                   : Red eyed machinery
Альбом/Исполнитель                       : Kult Of Red Pyramid
Часть/Положение                          : 3
Трек                                     : They're selling drugs to your children on the streets
Трек/Положение                           : 3
Исполнитель                              : Kult Of Red Pyramid
Композитор                               : Kult Of Red Pyramid
Издатель                                 : Kult Of Red Pyramid
Жанр                                     : Other
Дата записи                              : 2009
Примечание                               : www.kultofredpyramid.com

Аудио
Формат                                   : MPEG Audio
Версия формата                           : Version 1
Профиль формата                          : Layer 3
Продолжительность                        : 4 м. 45 с.
Вид битрейта                             : Постоянный
Битрейт                                  : 160 Кбит/сек
Каналы                                   : 2 канала
Частота                                  : 44,1 КГц
Метод сжатия                             : С потерями
Размер потока                            : 5,44 Мбайт (100%)

Общее
Полное имя                               : F:\pravka\Kult Of Red Pyramid  (2009 - 2014)\Compilation\2009 - Red-eyed Machinery (3CD)\CD3\04 - Death Calls.mp3
Формат                                   : MPEG Audio
Размер файла                             : 12,9 Мбайт
Продолжительность                        : 11 м.
Режим общего битрейта                    : Постоянный
Общий поток                              : 160 Кбит/сек
Альбом                                   : Red eyed machinery
Альбом/Исполнитель                       : Kult Of Red Pyramid
Часть/Положение                          : 3
Трек                                     : Death calls
Трек/Положение                           : 4
Исполнитель                              : Kult Of Red Pyramid
Композитор                               : Kult Of Red Pyramid
Издатель                                 : Kult Of Red Pyramid
Жанр                                     : Other
Дата записи                              : 2009
Примечание                               : www.kultofredpyramid.com

Аудио
Формат                                   : MPEG Audio
Версия формата                           : Version 1
Профиль формата                          : Layer 3
Продолжительность                        : 11 м.
Вид битрейта                             : Постоянный
Битрейт                                  : 160 Кбит/сек
Каналы                                   : 2 канала
Частота                                  : 44,1 КГц
Метод сжатия                             : С потерями
Размер потока                            : 12,9 Мбайт (100%)

Общее
Полное имя                               : F:\pravka\Kult Of Red Pyramid  (2009 - 2014)\Compilation\2009 - Red-eyed Machinery (3CD)\CD3\05 - Blood Scarab.mp3
Формат                                   : MPEG Audio
Размер файла                             : 6,65 Мбайт
Продолжительность                        : 5 м. 48 с.
Режим общего битрейта                    : Постоянный
Общий поток                              : 160 Кбит/сек
Альбом                                   : Red eyed machinery
Альбом/Исполнитель                       : Kult Of Red Pyramid
Часть/Положение                          : 3
Трек                                     : Blood scarab
Трек/Положение                           : 5
Исполнитель                              : Kult Of Red Pyramid
Композитор                               : Kult Of Red Pyramid
Издатель                                 : Kult Of Red Pyramid
Жанр                                     : Other
Дата записи                              : 2009
Примечание                               : www.kultofredpyramid.com

Аудио
Формат                                   : MPEG Audio
Версия формата                           : Version 1
Профиль формата                          : Layer 3
Продолжительность                        : 5 м. 48 с.
Вид битрейта                             : Постоянный
Битрейт                                  : 160 Кбит/сек
Каналы                                   : 2 канала
Частота                                  : 44,1 КГц
Метод сжатия                             : С потерями
Размер потока                            : 6,65 Мбайт (100%)

Общее
Полное имя                               : F:\pravka\Kult Of Red Pyramid  (2009 - 2014)\Compilation\2009 - Red-eyed Machinery (3CD)\CD3\06 - Gathering for the Feast.mp3
Формат                                   : MPEG Audio
Размер файла                             : 7,40 Мбайт
Продолжительность                        : 6 м. 27 с.
Режим общего битрейта                    : Постоянный
Общий поток                              : 160 Кбит/сек
Альбом                                   : Red eyed machinery
Альбом/Исполнитель                       : Kult Of Red Pyramid
Часть/Положение                          : 3
Трек                                     : Gathering for the feast
Трек/Положение                           : 6
Исполнитель                              : Kult Of Red Pyramid
Композитор                               : Kult Of Red Pyramid
Издатель                                 : Kult Of Red Pyramid
Жанр                                     : Other
Дата записи                              : 2009
Примечание                               : www.kultofredpyramid.com

Аудио
Формат                                   : MPEG Audio
Версия формата                           : Version 1
Профиль формата                          : Layer 3
Продолжительность                        : 6 м. 28 с.
Вид битрейта                             : Постоянный
Битрейт                                  : 160 Кбит/сек
Каналы                                   : 2 канала
Частота                                  : 44,1 КГц
Метод сжатия                             : С потерями
Размер потока                            : 7,40 Мбайт (100%)

Общее
Полное имя                               : F:\pravka\Kult Of Red Pyramid  (2009 - 2014)\Compilation\2009 - Red-eyed Machinery (3CD)\CD3\07 - Spidergod.mp3
Формат                                   : MPEG Audio
Размер файла                             : 7,44 Мбайт
Продолжительность                        : 6 м. 30 с.
Режим общего битрейта                    : Постоянный
Общий поток                              : 160 Кбит/сек
Альбом                                   : Red eyed machinery
Альбом/Исполнитель                       : Kult Of Red Pyramid
Часть/Положение                          : 3
Трек                                     : Spidergod
Трек/Положение                           : 7
Исполнитель                              : Kult Of Red Pyramid
Композитор                               : Kult Of Red Pyramid
Издатель                                 : Kult Of Red Pyramid
Жанр                                     : Other
Дата записи                              : 2009
Примечание                               : www.kultofredpyramid.com

Аудио
Формат                                   : MPEG Audio
Версия формата                           : Version 1
Профиль формата                          : Layer 3
Продолжительность                        : 6 м. 30 с.
Вид битрейта                             : Постоянный
Битрейт                                  : 160 Кбит/сек
Каналы                                   : 2 канала
Частота                                  : 44,1 КГц
Метод сжатия                             : С потерями
Размер потока                            : 7,44 Мбайт (100%)

Общее
Полное имя                               : F:\pravka\Kult Of Red Pyramid  (2009 - 2014)\Compilation\2009 - Red-eyed Machinery (3CD)\CD3\08 - The Doom Parade.mp3
Формат                                   : MPEG Audio
Размер файла                             : 12,3 Мбайт
Продолжительность                        : 10 м.
Режим общего битрейта                    : Постоянный
Общий поток                              : 160 Кбит/сек
Альбом                                   : Red eyed machinery
Альбом/Исполнитель                       : Kult Of Red Pyramid
Часть/Положение                          : 3
Трек                                     : The doom parade
Трек/Положение                           : 8
Исполнитель                              : Kult Of Red Pyramid
Композитор                               : Kult Of Red Pyramid
Жанр                                     : Other
Дата записи                              : 2009
Примечание                               : www.kultofredpyramid.com

Аудио
Формат                                   : MPEG Audio
Версия формата                           : Version 1
Профиль формата                          : Layer 3
Продолжительность                        : 10 м.
Вид битрейта                             : Постоянный
Битрейт                                  : 160 Кбит/сек
Каналы                                   : 2 канала
Частота                                  : 44,1 КГц
Метод сжатия                             : С потерями
Размер потока                            : 12,3 Мбайт (100%)

Общее
Полное имя                               : F:\pravka\Kult Of Red Pyramid  (2009 - 2014)\Compilation\2009 - Red-eyed Machinery (3CD)\CD3\09 - Frail Dreaming.mp3
Формат                                   : MPEG Audio
Размер файла                             : 6,01 Мбайт
Продолжительность                        : 5 м. 15 с.
Режим общего битрейта                    : Постоянный
Общий поток                              : 160 Кбит/сек
Альбом                                   : Red eyed machinery
Альбом/Исполнитель                       : Kult Of Red Pyramid
Часть/Положение                          : 3
Трек                                     : Frail dreaming
Трек/Положение                           : 9
Исполнитель                              : Kult Of Red Pyramid
Композитор                               : Kult Of Red Pyramid
Издатель                                 : Kult Of Red Pyramid
Жанр                                     : Other
Дата записи                              : 2009
Примечание                               : www.kultofredpyramid.com

Аудио
Формат                                   : MPEG Audio
Версия формата                           : Version 1
Профиль формата                          : Layer 3
Продолжительность                        : 5 м. 15 с.
Вид битрейта                             : Постоянный
Битрейт                                  : 160 Кбит/сек
Каналы                                   : 2 канала
Частота                                  : 44,1 КГц
Метод сжатия                             : С потерями
Размер потока                            : 6,01 Мбайт (100%)

Общее
Полное имя                               : F:\pravka\Kult Of Red Pyramid  (2009 - 2014)\Compilation\2009 - Red-eyed Machinery (3CD)\CD3\10 - It All Ends Tonight.mp3
Формат                                   : MPEG Audio
Размер файла                             : 5,07 Мбайт
Продолжительность                        : 4 м. 25 с.
Режим общего битрейта                    : Постоянный
Общий поток                              : 160 Кбит/сек
Альбом                                   : Red eyed machinery
Альбом/Исполнитель                       : Kult Of Red Pyramid
Часть/Положение                          : 3
Трек                                     : It all ends tonight
Трек/Положение                           : 10
Исполнитель                              : Kult Of Red Pyramid
Композитор                               : Kult Of Red Pyramid
Издатель                                 : Kult Of Red Pyramid
Жанр                                     : Other
Дата записи                              : 2009
Примечание                               : www.kultofredpyramid.com

Аудио
Формат                                   : MPEG Audio
Версия формата                           : Version 1
Профиль формата                          : Layer 3
Продолжительность                        : 4 м. 26 с.
Вид битрейта                             : Постоянный
Битрейт                                  : 160 Кбит/сек
Каналы                                   : 2 канала
Частота                                  : 44,1 КГц
Метод сжатия                             : С потерями
Размер потока                            : 5,07 Мбайт (100%)







Время раздачи:от 18:00 до 01:00
[NNM-Club.me]_Kult Of Red Pyramid (2009 - 2014).torrent
 Торрент: Платиновая раздача  Зарегистрирован
 
Скачать


Примагнититься
 Зарегистрирован:   27 Июн 2014 16:48:54
 Размер:   931 MB  (
 Рейтинг:   4,9 (Голосов: 15)
 Поблагодарили:   34
 Проверка:   Оформление проверено модератором 27 Июн 2014 16:53:52
Как cкачать  ·  Как раздать  ·  Правильно оформить  ·  Поднять ратио!  
Показать сообщения:   
Начать новую тему   Ответить на тему    Торрент-трекер NNM-Club -> Electronic -> Industrial, EBM, Dark Electro Часовой пояс: GMT + 3
Страница 1 из 1