Классический форум-трекер
canvas not supported
Нас вместе: 4 083 485
Платим за отзывы

Tchaikovsky - Works for 2 Pianos (Dag Achatz & Yukie Nagai) (1993) [FLAC|Lossless]<Classical, Romantic period, Ballet, Orchestral>


 
 
RSS
Начать новую тему   Ответить на тему    Торрент-трекер NNM-Club -> Классика -> Фортепиано (Lossless)
Автор Сообщение
halgen ®
Стаж: 9 лет 7 мес.
Сообщений: 673
Ratio: 214,895
Поблагодарили: 24625
100%
russia.gif
Tchaikovsky - Works for 2 Pianos (Dag Achatz & Yukie Nagai) (1993)
Год: 1993
Жанр: Classical, Romantic period, Ballet, Orchestral
Лейбл: BIS
Номер по каталогу: BIS 627
Продолжительность: 01:18:28
Кодек: FLAC
Битрейт: Lossless
Тип рипа: image+.cue

Треклист:
Excerpts from Sleeping Beauty, Op.66
01. Introduction: La Fée des lilas (04:32)
02. Adagio: Pas d'action (05:58)
03. Valse (04:43)
Excerpts from Swan Lake Op.20
04. Danse russe (05:05)
05. Dase espagnole (03:17)
06. Danse napolitaine (02:39)
Symphony no 5 in E min Op.64
07. Andante - Allegro con anima (16:41)
08. Andante cantabile con alacuna licenza (15:42)
09. Valse. Allegro moderato (06:02)
10. Finale. Andante maestoso - Allegro viviace - Moderato assai e molto maestoso - Presto (13:49)
Код:

Exact Audio Copy V1.0 beta 3 from 29. August 2011

EAC extraction logfile from 23. March 2014, 9:35

Various Artists / Tchaikovsky - Works arranged for 2 Pianos - Achatz, Nagai

Used drive  : TSSTcorpCDDVDW SH-222BB   Adapter: 2  ID: 1

Read mode               : Secure
Utilize accurate stream : Yes
Defeat audio cache      : Yes
Make use of C2 pointers : No

Read offset correction                      : 6
Overread into Lead-In and Lead-Out          : No
Fill up missing offset samples with silence : Yes
Delete leading and trailing silent blocks   : No
Null samples used in CRC calculations       : Yes
Used interface                              : Native Win32 interface for Win NT & 2000

Used output format              : User Defined Encoder
Selected bitrate                : 896 kBit/s
Quality                         : High
Add ID3 tag                     : No
Command line compressor         : C:\Program Files\Exact Audio Copy\FLAC\FLAC.EXE
Additional command line options : -8 -V -T "TITLE=%title%" -T "ARTIST=%artist%" -T "ALBUMARTIST=%albumartist%" -T "ALBUM=%albumtitle%" -T "DATE=%year%" -T "TRACKNUMBER=%tracknr%" -T "TRACKTOTAL=%numtracks%" -T "GENRE=%genre%" -T "COMMENT=%comment%" -T "PERFORMER=%albuminterpret%" -T "COMPOSER=%composer%" %source% -o %dest%

TOC of the extracted CD

     Track |   Start  |  Length  | Start sector | End sector
    ---------------------------------------------------------
        1  |  0:00.00 |  4:32.00 |         0    |    20399
        2  |  4:32.00 |  5:58.00 |     20400    |    47249
        3  | 10:30.00 |  4:43.00 |     47250    |    68474
        4  | 15:13.00 |  5:05.00 |     68475    |    91349
        5  | 20:18.00 |  3:17.00 |     91350    |   106124
        6  | 23:35.00 |  2:39.00 |    106125    |   118049
        7  | 26:14.00 | 16:41.00 |    118050    |   193124
        8  | 42:55.00 | 15:42.00 |    193125    |   263774
        9  | 58:37.00 |  6:02.00 |    263775    |   290924
       10  | 64:39.00 | 13:49.00 |    290925    |   353099

Range status and errors

Selected range

     Filename E:\3000\[3514] Tchaikovsky – Works arranged for 2 Pianos – Achatz, Nagai\Tchaikovsky - Works arranged for 2 Pianos - Achatz, Nagai.wav

     Peak level 97.0 %
     Extraction speed 7.6 X
     Range quality 100.0 %
     Test CRC D3E06937
     Copy CRC D3E06937
     Copy OK

No errors occurred

AccurateRip summary

Track  1  accurately ripped (confidence 2)  [6435515B]  (AR v2)
Track  2  accurately ripped (confidence 2)  [35F84433]  (AR v2)
Track  3  accurately ripped (confidence 2)  [C0EA44E5]  (AR v2)
Track  4  accurately ripped (confidence 2)  [36D8367A]  (AR v2)
Track  5  accurately ripped (confidence 2)  [0B43838D]  (AR v2)
Track  6  accurately ripped (confidence 2)  [DB91CAD7]  (AR v2)
Track  7  accurately ripped (confidence 2)  [9FBAC0C2]  (AR v2)
Track  8  accurately ripped (confidence 2)  [6DEEB762]  (AR v2)
Track  9  accurately ripped (confidence 2)  [1C2EA0BA]  (AR v2)
Track 10  accurately ripped (confidence 2)  [F471E935]  (AR v2)

All tracks accurately ripped

End of status report

==== Log checksum EB73CE45D46992B105779D016DAAEE29F7B62DEEF393D697208AF26A409AD37F ====
Код:

-----------------------

DON'T MODIFY THIS FILE

-----------------------

PERFORMER: auCDtect Task Manager, ver. 1.5.1RC6 build 1.5.1.7
Copyright (c) 2008-2010 y-soft. All rights reserved
http://y-soft.org

ANALYZER: auCDtect: CD records authenticity detector, version 0.8.2
Copyright (c) 2004 Oleg Berngardt. All rights reserved.
Copyright (c) 2004 Alexander Djourik. All rights reserved.

FILE: Tchaikovsky - Works arranged for 2 Pianos - Achatz, Nagai.flac
  Size: 227375388 Hash: 0A148BE77368B8E7A7DCCD2BB0D61CEC Accuracy: -m0
  Conclusion: CDDA 92%
  Signature: C57BBEDA1F7ECEDB9D5D9B5AFE537DD3EE980CC8
Время раздачи: 19:00-24:00 msk


Поглощение/вытеснение
Только с согласия релизера

DesideriuM
[NNM-Club.me]_Tchaikovsky – Piano Works.torrent
 Торрент: Платиновая раздача  Зарегистрирован
 
Скачать


Примагнититься
 Зарегистрирован:   27 Июн 2014 21:28:04
 Размер:   224 MB  (
 Рейтинг:   4,6 (Голосов: 14)
 Поблагодарили:   53
 Проверка:   Оформление проверено модератором 29 Июн 2014 10:34:41
Как cкачать  ·  Как раздать  ·  Правильно оформить  ·  Поднять ратио!  
Loading...
Показать сообщения:   
Начать новую тему   Ответить на тему    Торрент-трекер NNM-Club -> Классика -> Фортепиано (Lossless) Часовой пояс: GMT + 3
Страница 1 из 1