Классический форум-трекер
canvas not supported
Нас вместе: 4 078 848

Рио 2 / Rio 2 (2014) BDRip [1080p] 3D [Вертикальная анаморфная стереопара]


Страницы:  1, 2  След. 
 
RSS
Начать новую тему   Ответить на тему    Торрент-трекер NNM-Club -> Мультфильмы -> Зарубежные Мультфильмы (3D)
Автор Сообщение
igor nisan ®
RG Всё лучшее - детям!
 
Стаж: 8 лет
Сообщений: 740
Ratio: 50,891
Поблагодарили: 97977
100%
ukraine.gif
Рио 2 / Rio 2 (2014) BDRip«It's on in the Amazon»
Год выпуска: 2014
Жанр: Мультфильм, Комедия, Приключения, Семейный

Описание:
Голубчик, Жемчужинка и их трое детей живут счастливой жизнью в волшебном городе Рио-де-Жанейро. Когда Жемчужинка решает, что их детям нужно научиться жить как настоящим птицам, она настаивает на авантюрной поездке в дебри реки Амазонки. Там, пытаясь вписаться в новое окружение, Голубчик начинает беспокоиться, что может потерять Жемчужинку и детей, идущих на зов дикой природы.

Режиссер: Карлос Салдана
Персонажи: Энн Хэтэуэй, Джесси Айзенберг, Джейк Т. Остин, Карлиньюс Браун, Кристин Ченоуэт, Джемейн Клемент, Джим Конрой, Рэйчел Кроу, Бернардо де Паула, Нола Донкин
Роли дублировали: Татьяна Шилина, Павел Деревянко, Олег Куценко, Ульяна Иващенко, Илья Колесников

Продолжительность: 01:41:10
Качество видео: BDRip
Перевод: Дублированный (Blu-Ray3D EE - /Eastern Europe/)


Дата мировой премьеры: 20 марта 2014
Дата российской премьеры: 20 марта 2014, «Двадцатый Век Фокс СНГ»
Дата выхода DVD релиза: 10 июля 2014, «Двадцатый Век Фокс СНГ»
Дата выхода Blu-Ray релиза: 10 июля 2014, «Двадцатый Век Фокс СНГ»
Видеокодек: MPEG-4 AVC/H.264
Битрейт видео: ~11,6 Мбит/сек
Размер кадра: 1920x1080
Аудио 1: AC3 5.1 640 Кбит/сек - Русский
Аудио 2: AC3 5.1 448 Кбит/сек - Украинский
Аудио 3: AC3 5.1 640 Кбит/сек - Английский
Общее
Уникальный идентификатор : 232931229152218378380835241880146978001 (0xAF3CEC44883DA7CB8D26DDD5DA60A4D1)
Полное имя : F:\my films\Rio_2_3D.mkv
Формат : Matroska
Версия формата : Version 2
Размер файла : 9,58 Гбайт
Продолжительность : 1 ч. 41 м.
Общий поток : 13,6 Мбит/сек
Название фильма : Rio_2_3D_Crop_O/U
Дата кодирования : UTC 2014-07-04 11:18:55
Программа кодирования : mkvmerge v5.3.0 ('I could have danced') built on Feb 9 2012 10:38:07
Библиотека кодирования : libebml v1.2.3 + libmatroska v1.3.0

Видео
Идентификатор : 1
Формат : AVC
Формат/Информация : Advanced Video Codec
Профиль формата : High@L4.1
Параметр CABAC формата : Да
Параметр ReFrames формата : 4 кадра
Идентификатор кодека : V_MPEG4/ISO/AVC
Продолжительность : 1 ч. 41 м.
Битрейт : 11,6 Мбит/сек
Ширина : 1920 пикселей
Высота : 1080 пикселей
Соотношение сторон : 16:9
Режим частоты кадров : Постоянный
Частота кадров : 23,976 кадра/сек
Цветовое пространство : YUV
Субдискретизация насыщенности : 4:2:0
Битовая глубина : 8 бит
Тип развёртки : Прогрессивная
Бит/(Пиксели*Кадры) : 0.232
Размер потока : 8,17 Гбайт (85%)
Заголовок : rip by I/N
Библиотека кодирования : x264 core 128 r2216M 198a7ea
Настройки программы : cabac=1 / ref=4 / deblock=1:-3:-3 / analyse=0x3:0x133 / me=umh / subme=10 / psy=1 / psy_rd=1.00:0.15 / mixed_ref=1 / me_range=32 / chroma_me=1 / trellis=2 / 8x8dct=1 / cqm=0 / deadzone=21,11 / fast_pskip=1 / chroma_qp_offset=-3 / threads=8 / lookahead_threads=1 / sliced_threads=0 / nr=0 / decimate=1 / interlaced=0 / bluray_compat=0 / constrained_intra=0 / bframes=6 / b_pyramid=2 / b_adapt=2 / b_bias=0 / direct=3 / weightb=1 / open_gop=0 / weightp=2 / keyint=230 / keyint_min=23 / scenecut=40 / intra_refresh=0 / rc_lookahead=60 / rc=crf / mbtree=1 / crf=17.0 / qcomp=0.60 / qpmin=0 / qpmax=69 / qpstep=4 / vbv_maxrate=40000 / vbv_bufsize=30000 / crf_max=30.0 / nal_hrd=none / ip_ratio=1.40 / aq=1:1.00
Default : Да
Forced : Нет

Аудио #1
Идентификатор : 2
Формат : AC-3
Формат/Информация : Audio Coding 3
Расширение режима : CM (complete main)
Параметр Endianness формата : Big
Идентификатор кодека : A_AC3
Продолжительность : 1 ч. 41 м.
Вид битрейта : Постоянный
Битрейт : 640 Кбит/сек
Каналы : 6 каналов
Расположение каналов : Front: L C R, Side: L R, LFE
Частота : 48,0 КГц
Битовая глубина : 16 бит
Метод сжатия : С потерями
Размер потока : 463 Мбайт (5%)
Заголовок : Дубляж
Язык : Russian
Default : Да
Forced : Нет

Аудио #2
Идентификатор : 3
Формат : AC-3
Формат/Информация : Audio Coding 3
Расширение режима : CM (complete main)
Параметр Endianness формата : Big
Идентификатор кодека : A_AC3
Продолжительность : 1 ч. 41 м.
Вид битрейта : Постоянный
Битрейт : 448 Кбит/сек
Каналы : 6 каналов
Расположение каналов : Front: L C R, Side: L R, LFE
Частота : 48,0 КГц
Битовая глубина : 16 бит
Метод сжатия : С потерями
Размер потока : 324 Мбайт (3%)
Заголовок : Дубляж
Язык : Ukrainian
Default : Нет
Forced : Нет

Аудио #3
Идентификатор : 4
Формат : AC-3
Формат/Информация : Audio Coding 3
Расширение режима : CM (complete main)
Параметр Endianness формата : Big
Идентификатор кодека : A_AC3
Продолжительность : 1 ч. 41 м.
Вид битрейта : Постоянный
Битрейт : 640 Кбит/сек
Каналы : 6 каналов
Расположение каналов : Front: L C R, Side: L R, LFE
Частота : 48,0 КГц
Битовая глубина : 16 бит
Метод сжатия : С потерями
Размер потока : 463 Мбайт (5%)
Заголовок : Original
Язык : English
Default : Нет
Forced : Нет

Меню
00:00:00.000 : en:00:00:00.000
00:03:10.816 : en:00:03:10.816
00:05:14.314 : en:00:05:14.314
00:08:49.362 : en:00:08:49.362
00:13:02.240 : en:00:13:02.240
00:17:36.305 : en:00:17:36.305
00:19:19.408 : en:00:19:19.408
00:22:30.349 : en:00:22:30.349
00:26:48.690 : en:00:26:48.690
00:29:00.155 : en:00:29:00.155
00:30:59.691 : en:00:30:59.691
00:33:46.566 : en:00:33:46.566
00:36:34.192 : en:00:36:34.192
00:39:20.233 : en:00:39:20.233
00:41:32.657 : en:00:41:32.657
00:45:05.119 : en:00:45:05.119
00:47:23.090 : en:00:47:23.090
00:49:58.162 : en:00:49:58.162
00:52:05.456 : en:00:52:05.456
00:55:38.919 : en:00:55:38.919
00:58:10.904 : en:00:58:10.904
01:02:11.394 : en:01:02:11.394
01:04:38.083 : en:01:04:38.083
01:07:03.937 : en:01:07:03.937
01:09:18.196 : en:01:09:18.196
01:10:21.342 : en:01:10:21.342
01:15:17.763 : en:01:15:17.763
01:17:00.157 : en:01:17:00.157
01:21:41.855 : en:01:21:41.855
01:25:24.619 : en:01:25:24.619
01:29:42.711 : en:01:29:42.711
01:32:27.959 : en:01:32:27.959
01:41:09.855 : en:01:41:09.855
Справа и слева у видеоряда обрезано по 248р, что дает возможность просмотра на полный экран (без черных полос) на телевизорах с соотношением сторон 16:9 без изменения пропорций. На мой взгляд плюсы данных рипов- это более глубокое восприятие 3D-эффектов (конечно там где они есть) К минусам отнесу- вынужденное обрезание кадра по бокам. Так-что господа- выбор за вами!
Всем приятного просмотра!
Проверено на встроенном плейере ТВ Samsung-D6500
Скриншоты:


Рио 2 на NNM-CLUB
Время раздачи: 24/7 - круглосуточно до 10 скачавших
[NNM-Club.me]_Rio_2_3D.mkv.torrent
 Торрент: Платиновая раздача  Зарегистрирован
 
Скачать


Примагнититься
 Зарегистрирован:   04 Июл 2014 14:48:31
 Размер:   9,58 GB  (
 Рейтинг:   4,8 (Голосов: 96)
 Поблагодарили:   388
 Проверка:   Оформление проверено модератором 04 Июл 2014 19:17:30
Как cкачать  ·  Как раздать  ·  Правильно оформить  ·  Поднять ратио!  
Загрузка...
ProtasovSS
Стаж: 7 лет 11 мес.
Сообщений: 10
Ratio: 48,383
100%
russia.gif
а че скрины с горизонталки??
pp2141
Стаж: 5 лет 9 мес.
Сообщений: 7
Ratio: 337,022
Раздал: 9,569 TB
100%
russia.gif
Спасибо
starklad
RG Всё лучшее - детям!
Реставратор Детского, Uploader 100+
 
Стаж: 7 лет 10 мес.
Сообщений: 7923
Ratio: 12K
Поблагодарили: 198771
100%
Откуда: родом из СССР
ussr.gif
ProtasovSS
Цитата:
6) Стереопара вертикальная (формат) pic
(две картинки расположены друг над другом по вертикали)

Что такое 3D и 4D фильмы, и как их смотреть в быту.
andrew197473
Стаж: 8 лет
Сообщений: 50
Ratio: 46,003
100%
russia.gif
Это и есть вертикалка.... ,т.е. кадры располагаются друг под другом ,вертикально... сам недавно прочитал об этом...хотя визуально мне тоже казалось, что это горизонталка...
Santas 61
Стаж: 6 лет 3 мес.
Сообщений: 40
Ratio: 316,859
Раздал: 46,38 TB
100%
ussr.gif
Кто знает когда '' Феи: Загадка пиратского острова'' BD3D появится ?
starklad
RG Всё лучшее - детям!
Реставратор Детского, Uploader 100+
 
Стаж: 7 лет 10 мес.
Сообщений: 7923
Ratio: 12K
Поблагодарили: 198771
100%
Откуда: родом из СССР
ussr.gif
Santas 61
Феи: Загадка пиратского острова / The Pirate Fairy (2014) BDRip [1080p] 3D [Вертикальная анаморфная стереопара]
Santas 61
Стаж: 6 лет 3 мес.
Сообщений: 40
Ratio: 316,859
Раздал: 46,38 TB
100%
ussr.gif
starklad писал(а): Перейти к сообщению
Cпасибо starklad , но я вообще то о BD3D хотел узнать ( Дата выхода Blu-Ray релиза: 20 мая ещё ) , а по Вашей ссылке отзывы не айс :огорчение: . Извиняюсь за флуд не по теме :да: .
Gremka
Стаж: 9 лет 10 мес.
Сообщений: 1
Ratio: 14,893
0%
argentina.gif
скажите, какие очки нужны для этого?
Santas 61
Стаж: 6 лет 3 мес.
Сообщений: 40
Ratio: 316,859
Раздал: 46,38 TB
100%
ussr.gif
Gremka писал(а): Перейти к сообщению
скажите, какие очки нужны для этого?
Которые идут в комплекте к Вашему телевизору :ангел: .
rezonikala
Стаж: 6 лет 8 мес.
Сообщений: 11
Ratio: 0,6
22.86%
zdrastvite

Рио 2 2014) BDRip 3D [1080p] [3D/2D] [hand made 16:9] - takoi variant multvilma budet? iso fail. 1980x1024

spasibo za ranee
igor nisan ®
RG Всё лучшее - детям!
 
Стаж: 8 лет
Сообщений: 740
Ratio: 50,891
Поблагодарили: 97977
100%
ukraine.gif
Будет.
rezonikala
Стаж: 6 лет 8 мес.
Сообщений: 11
Ratio: 0,6
22.86%
bolshoe spasibo
igor nisan ®
RG Всё лучшее - детям!
 
Стаж: 8 лет
Сообщений: 740
Ratio: 50,891
Поблагодарили: 97977
100%
ukraine.gif
Релиз обновлён.
Дубляж - Line заменён на лицензию, добавлен украинский дубляж.
Приятного просмотра!
sanktum 1
Стаж: 6 лет
Сообщений: 4
Ratio: 3,058
4.35%
Здравствуйте, почему при просмотре , бывают как проблески, когда быстро разговаривают, что это может быть?
Показать сообщения:   
Начать новую тему   Ответить на тему    Торрент-трекер NNM-Club -> Мультфильмы -> Зарубежные Мультфильмы (3D) Часовой пояс: GMT + 3
Страницы:  1, 2  След.
Страница 1 из 2