Классический форум-трекер
canvas not supported
Нас вместе: 4 083 344
Платим за отзывы

Успеть до полуночи / Midnight Run (1988) HDRip


 
 
RSS
Начать новую тему   Ответить на тему    Торрент-трекер NNM-Club -> Классика кино и Старые фильмы до 90-х -> Зарубежная Классика (HD*Rip/LQ, DVDRip, SATRip, VHSRip)
Автор Сообщение
ra3wa ®
Модератор Видео
RG Releasers
Uploader 100+
 
Стаж: 9 лет 5 мес.
Сообщений: 12401
Ratio: 8632,233
Раздал: 402,5 TB
Поблагодарили: 2387352
100%
Откуда: Воронеж
russia.gif
Успеть до полуночи / Midnight Run (1988) HDRip
Год выпуска: 1988
Производство: США, Universal Pictures
Жанр: Боевик, триллер, комедия, криминал, приключения

Режиссер: Мартин Брест
Актеры: Роберт Де Ниро, Чарльз Гродин, Яфет Котто, Джон Эштон, Дэннис Фарина, Джо Пантолиано, Ричард Фороньи, Роберт Миранда, Джек Кехо, Венди Филлипс, Даниель ДюКлос, Филип Бэйкер Холл, Том МакКлейстер, Мэри Гиллис, Джон Тоулс-Бей, Томас Дж. Хэджбек, Стэнли Уайт, Скотт МакЭфи, Линда Маргулес, Луис Смит, Фран Брилл

Описание фильма:
Джек Уолш — опытный профессионал, мастер своего дела. Когда-то он служил в полиции, а теперь занимается частным сыском. Его специализация — операции по поимке беглых преступников. В этот раз Джек занят поисками Джонатана Мардукаса, известного под кличкой «Герцог». Мардукас, скромный и интеллигентный бухгалтер, умудрился украсть у мафии 15 миллионов долларов. По договоренности Джек должен поймать «Герцога», заковать в наручники и доставить на самолете из Нью-Йорка в Лос-Анджелес в условленный срок. За это Уолш получит целых сто тысяч долларов...

Перевод: Профессиональный многоголосый
Субтитры: Отсутствуют



Продолжительность: 02:06:55
Качество видео: HDRip

Видеокодек: XviD
Битрейт видео: ~1444 Кбит/с
Размер кадра: 704x384
Аудиокодек: AC3 2 ch
Битрейт аудио: 192 Кбит/с

Общее
Полное имя : C:\NNM\Успеть до полуночи\Uspetj do polunochi 1988 HDRip.avi
Формат : AVI
Формат/Информация : Audio Video Interleave
Размер файла : 1,45 Гбайт
Продолжительность : 2 ч. 6 м.
Общий поток : 1645 Кбит/сек
Программа кодирования : VirtualDubMod 1.5.10.3
Библиотека кодирования : VirtualDubMod build 2550/release

Видео
Идентификатор : 0
Формат : MPEG-4 Visual
Профиль формата : Advanced Simple@L5
Параметр BVOP формата : 1
Параметр QPel формата : Нет
Параметр GMC формата : Без точки перехода
Параметр матрицы формата : Выборочная
Идентификатор кодека : XVID
Идентификатор кодека/Подсказка : XviD
Продолжительность : 2 ч. 6 м.
Битрейт : 1444 Кбит/сек
Ширина : 704 пикселя
Высота : 384 пикселя
Соотношение сторон : 16:9
Частота кадров : 23,976 кадра/сек
Цветовое пространство : YUV
Субдискретизация насыщенности : 4:2:0
Битовая глубина : 8 бит
Тип развёртки : Прогрессивная
Метод сжатия : С потерями
Бит/(Пиксели*Кадры) : 0.223
Размер потока : 1,27 Гбайт (88%)
Библиотека кодирования : XviD 73

Аудио
Идентификатор : 1
Формат : AC-3
Формат/Информация : Audio Coding 3
Расширение режима : CM (complete main)
Идентификатор кодека : 2000
Продолжительность : 2 ч. 6 м.
Вид битрейта : Постоянный
Битрейт : 192 Кбит/сек
Каналы : 2 канала
Расположение каналов : Front: L R
Частота : 48,0 КГц
Битовая глубина : 16 бит
Метод сжатия : С потерями
Размер потока : 173 Мбайт (12%)
Выравнивание : Разделение по промежуткам
Продолжительность промежутка : 42 мс. (1,00 видеокадр)
Время предзагрузки промежутка : 500 мс.
Скриншоты: Время раздачи: Круглосуточно до 10 скачавших
[NNM-Club.me]_Uspetj do polunochi 1988 HDRip.avi.torrent
 Торрент: Платиновая раздача  Зарегистрирован
 
Скачать


Примагнититься
 Зарегистрирован:   29 Июн 2014 15:31:13
 Размер:   1,45 GB  (
 Рейтинг:   4,8 (Голосов: 106)
 Поблагодарили:   405
 Проверка:   Оформление проверено модератором 29 Июн 2014 19:44:22
Как cкачать  ·  Как раздать  ·  Правильно оформить  ·  Поднять ратио!  
lordtin
Стаж: 10 лет 1 мес.
Сообщений: 140
Ratio: 2,121
Поблагодарили: 25
100%
russia.gif
Фильм из прошлого)))
Ignotus
Стаж: 7 лет 1 мес.
Сообщений: 1326
Ratio: 283,401
100%
ussr.gif
Очень хорошее кино. Благодарю!

_________________
В этом мире нет секретов, даже если все думают, что это только их секрет.
g6.msk.rus
Стаж: 12 лет 2 мес.
Сообщений: 254
Ratio: 4,284
100%
Откуда: Мышезадрищенск
ussr.gif
класс!!! гродин крут, де ниро держит марку
pasmo
Стаж: 6 лет
Сообщений: 36
Ratio: 7,301
100%
перевод в Михалеве натурально знал наизусть ))
notfound72
Стаж: 12 лет 5 мес.
Сообщений: 34
Ratio: 7,648
Поблагодарили: 49
25.16%
Откуда: Москва
russia.gif
pasmo писал(а): Перейти к сообщению
перевод в Михалеве натурально знал наизусть ))
+100500
Не так давно выкинул кассету с фильмом, т.к. негде проигрывать...скачаю понастальгирую)
Litvin0220
Стаж: 7 мес. 20 дней
Сообщений: 1
100%
ukraine.gif
отличный фильм)спасибо)))
Показать сообщения:   
Начать новую тему   Ответить на тему    Торрент-трекер NNM-Club -> Классика кино и Старые фильмы до 90-х -> Зарубежная Классика (HD*Rip/LQ, DVDRip, SATRip, VHSRip) Часовой пояс: GMT + 3
Страница 1 из 1