Классический форум-трекер
canvas not supported
Нас вместе: 4 083 485
Платим за отзывы

Tchaikovsky - Symphonies nos.4 & 2 (Claudio Abbado) (1999) [FLAC|Lossless]<Classical, Orchestral, Symphonic, Romantic Period>


 
 
RSS
Начать новую тему   Ответить на тему    Торрент-трекер NNM-Club -> Классика -> Оркестровая (Lossless)
Автор Сообщение
halgen ®
Стаж: 9 лет 7 мес.
Сообщений: 673
Ratio: 214,895
Поблагодарили: 24625
100%
russia.gif
Tchaikovsky - Symphonies nos.4 & 2 (Claudio Abbado) (1999)
Год: 1999
Жанр: Classical, Orchestral, Symphonic, Romantic Period
Лейбл: Deutsche Grammophon
Номер по каталогу: Pt0028946335420
Продолжительность: 01:15:20
Кодек: FLAC
Битрейт: Lossless
Тип рипа: image+.cue

Треклист:
Symphony No. 4 in F minor, Op.36
01. Andante sostenuto - Moderato con anima - Moderato assai, quasi Andante - Allegro vivo (18:16)
02. Andantino in modo di canzone (09:05)
03. Scherzo. Pizzicato ostinato - Allegro (05:41)
04. Finale. Allegro con fuoco (08:39)
Sinfonía No.2 in C minor, Op.17 "Little Russian"
05. Andante sostenuto - Allegro vivo (10:38)
06. Andantino marziale, quasi moderato (07:11)
07. Scherzo: Allegro molto vivace - Trio: L'istesso tempo (05:15)
08. Moderato assai - Allegro vivo - Presto (10:34)
Composer: Piotr Ilitch Tchaikovsky (1840-1893)
Conductor: Claudio Abbado
Ensemble: Vienna Philharmonic Orchestra
Ensemble: New Philharmonia Orchestra, London
Код:

Exact Audio Copy V1.0 beta 3 from 29. August 2011

EAC extraction logfile from 31. May 2014, 12:14

Claudio Abbado / Tchaikovsky - Symphonies nos.4 & 2 - Claudio Abbado

Used drive  : TSSTcorpCDDVDW SH-222BB   Adapter: 2  ID: 1

Read mode               : Secure
Utilize accurate stream : Yes
Defeat audio cache      : Yes
Make use of C2 pointers : No

Read offset correction                      : 6
Overread into Lead-In and Lead-Out          : No
Fill up missing offset samples with silence : Yes
Delete leading and trailing silent blocks   : No
Null samples used in CRC calculations       : Yes
Used interface                              : Native Win32 interface for Win NT & 2000

Used output format              : User Defined Encoder
Selected bitrate                : 896 kBit/s
Quality                         : High
Add ID3 tag                     : No
Command line compressor         : C:\Program Files\Exact Audio Copy\FLAC\FLAC.EXE
Additional command line options : -8 -V -T "TITLE=%title%" -T "ARTIST=%artist%" -T "ALBUMARTIST=%albumartist%" -T "ALBUM=%albumtitle%" -T "DATE=%year%" -T "TRACKNUMBER=%tracknr%" -T "TRACKTOTAL=%numtracks%" -T "GENRE=%genre%" -T "COMMENT=%comment%" -T "PERFORMER=%albuminterpret%" -T "COMPOSER=%composer%" %source% -o %dest%

TOC of the extracted CD

     Track |   Start  |  Length  | Start sector | End sector
    ---------------------------------------------------------
        1  |  0:00.33 | 18:16.25 |        33    |    82257
        2  | 18:16.58 |  9:05.37 |     82258    |   123169
        3  | 27:22.20 |  5:41.38 |    123170    |   148782
        4  | 33:03.58 |  8:38.50 |    148783    |   187682
        5  | 41:42.33 | 10:38.00 |    187683    |   235532
        6  | 52:20.33 |  7:11.37 |    235533    |   267894
        7  | 59:31.70 |  5:15.38 |    267895    |   291557
        8  | 64:47.33 | 10:33.40 |    291558    |   339072

Range status and errors

Selected range

     Filename G:\Ripped general\[dg.036] Tchaikovsky – Symphonies nos.4 & 2 – Claudio Abbado\Tchaikovsky - Symphonies nos.4 & 2 - Claudio Abbado.wav

     Peak level 96.1 %
     Extraction speed 2.3 X
     Range quality 100.0 %
     Test CRC 4A64EB4C
     Copy CRC 4A64EB4C
     Copy OK

No errors occurred

AccurateRip summary

Track  1  cannot be verified as accurate (confidence 22)  [7CF329CC], AccurateRip returned [D96995B0]  (AR v2)
Track  2  cannot be verified as accurate (confidence 24)  [00D8BEBF], AccurateRip returned [65880210]  (AR v2)
Track  3  cannot be verified as accurate (confidence 24)  [DA6C05AA], AccurateRip returned [773D2874]  (AR v2)
Track  4  cannot be verified as accurate (confidence 24)  [E20130C0], AccurateRip returned [4272FE47]  (AR v2)
Track  5  cannot be verified as accurate (confidence 23)  [CD5EA94B], AccurateRip returned [4155B37C]  (AR v2)
Track  6  cannot be verified as accurate (confidence 24)  [F299C76E], AccurateRip returned [801150AE]  (AR v2)
Track  7  cannot be verified as accurate (confidence 24)  [836E4DC7], AccurateRip returned [E13023A6]  (AR v2)
Track  8  cannot be verified as accurate (confidence 23)  [8146DE8B], AccurateRip returned [49C51D52]  (AR v2)

No tracks could be verified as accurate
You may have a different pressing from the one(s) in the database

End of status report

==== Log checksum 052D1EC00C0C69B67E703BF597FF499B6ECC03D76D27C6AA72AA39BE9E9ADD06 ====
Код:

-----------------------

DON'T MODIFY THIS FILE

-----------------------

PERFORMER: auCDtect Task Manager, ver. 1.5.1RC6 build 1.5.1.7
Copyright (c) 2008-2010 y-soft. All rights reserved
http://y-soft.org

ANALYZER: auCDtect: CD records authenticity detector, version 0.8.2
Copyright (c) 2004 Oleg Berngardt. All rights reserved.
Copyright (c) 2004 Alexander Djourik. All rights reserved.

FILE: Tchaikovsky - Symphonies nos.4 & 2 - Claudio Abbado.flac
  Size: 336385402 Hash: E2B0014E41EF8DAFD5DA34A6CE363C46 Accuracy: -m0
  Conclusion: CDDA 99%
  Signature: 1BB34D4FECEE77D99E2C43AB18A0B1720F086933
Время раздачи: 19:00-24:00 msk


Поглощение/вытеснение
Только с согласия релизера

DesideriuM
[NNM-Club.me]_Tchaikovsky – Symphonies nos.4 & 2.torrent
 Торрент: Платиновая раздача  Зарегистрирован
 
Скачать


Примагнититься
 Зарегистрирован:   01 Июл 2014 21:29:55
 Размер:   323 MB  (
 Рейтинг:   4,9 (Голосов: 11)
 Поблагодарили:   52
 Проверка:   Оформление проверено модератором 01 Июл 2014 23:34:12
Как cкачать  ·  Как раздать  ·  Правильно оформить  ·  Поднять ратио!  
Loading...
Показать сообщения:   
Начать новую тему   Ответить на тему    Торрент-трекер NNM-Club -> Классика -> Оркестровая (Lossless) Часовой пояс: GMT + 3
Страница 1 из 1