Классический форум-трекер
canvas not supported
Нас вместе: 4 077 958

Доктор Хаус / House M.D. (2004) WEB-DL [H.264/1080p-LQ] (Сезон 1, серии 1-22 из 22) LostFilm, Федосов, Домашний


 
 
RSS
Начать новую тему   Ответить на тему    Торрент-трекер NNM-Club -> Зарубежные сериалы -> Доктор Хаус / House M.D.
Автор Сообщение
CEBEPu2D ®
Стаж: 8 лет 10 мес.
Сообщений: 198
Ratio: 95,882
Поблагодарили: 3514
100%
Откуда: адукто
russia.gif

Доктор Хаус / House M.D. (2004) WEB-DL [H.264/1080p-LQ] (Сезон 1, серии 1-22 из 22) LostFilm, Федосов, Домашний
Год выпуска: 2004-2005
Страна: США
Жанр: Комедия, драма
Продолжительность: ~ 00:45:00 серия
Перевод: Профессиональный (многоголосый, одноголосый закадровый) LostFilm, Федосов, Домашний
Режиссер: Дэвид Шор
Актеры: Хью Лори, Лиза Эдельштейн, Омар Эппс, Роберт Шон Леонард, Дженнифер Моррисон, Джесси Спенсер
Описание: Доктор Грегори Хауз (Хью Лори) не отличается проникновенностью в общении с больными и с удовольствием избегает их, если только есть возможность. Он сам всё время проводит в борьбе с собственной болью, а трость в его руке только подчеркивает его жесткую ядовитую манеру общения.
Порой его поведение можно назвать почти бесчеловечным, и при этом он прекрасный врач, обладаюший нетипичным умом и безупречным инстинктом, что снискало ему глубокое уважение. Будучи инфекционистом, он ещё и замечательный диагност, который любит разгадывать медицинские загадки, чтобы спасти кому-то жизнь.
Релизер : Автор Раздачи - АКТЕР aka CEBEPu2D
Работа со звуком: : doc.logan
Озвучка : LostFilm (студия «Кравец»), Федосов, Домашний


Сэмпл / Все раздачи сериала
Качество: WEB-DL (1080p)
Видеокодек: MPEG-4 AVC/H.264
Битрейт видео: ~ 5000 Кбит/с
Размер кадра: 1920x1080
Аудио #1: АС3, 6 ch, 448 Кбит/с (Русский)
Аудио #2: АС3, 2 ch, 192 Кбит/с (Русский)
Аудио #3: АС3, 2 ch, 192 Кбит/с (Русский)
Аудио #4: АС3, 6 ch, 384 Кбит/с (Английский)
Вид субтитров: Вшитые, отключаемые
Язык субтитров: Русский, английский
01. Пилот / Pilot
02. Отцовство / Paternity
03. Бритва Оккама / Occam's Razor
04. Материнство / Maternity
05. Куда ни кинь, всюду клин / Damned If You Do
06. Метод Сократа / The Socratic Method
07. Верность / Fidelity
08. Яд / Poison
09. Отказ от реанимации / DNR
10. Сбор анамнеза / Histories
11. Детоксикация / Detox
12. Спортивная медицина / Sports Medicine
13. Проклятый / Cursed
14. Контроль / Control
15. Законы мафии / Mob Rules
16. Бремя / Heavy
17. Пример для подражания / Role Model
18. Не выплеснуть младенца / Babies & Bathwater
19. Дети / Kids
20. Любовные раны / Love Hurts
21. Три истории / Three Stories
22. Медовый месяц / The Honeymoon
Полное имя : E:\House.M.D.S01E05.Damned.If.You.Do.1080p.WEB-DL.by.AKTEP.mkv
Формат : Matroska
Версия формата : Version 4 / Version 2
Размер файла : 1,94 Гбайт
Продолжительность : 44 м.
Общий поток : 6299 Кбит/сек
Дата кодирования : UTC 2014-07-02 07:38:44
Программа кодирования : mkvmerge v6.2.0 ('Promised Land') built on Apr 28 2013 12:22:01
Библиотека кодирования : libebml v1.3.0 + libmatroska v1.4.0

Видео
Идентификатор : 1
Формат : AVC
Формат/Информация : Advanced Video Codec
Профиль формата : High@L4.0
Параметр CABAC формата : Да
Параметр ReFrames формата : 4 кадра
Идентификатор кодека : V_MPEG4/ISO/AVC
Продолжительность : 44 м.
Битрейт : 4958 Кбит/сек
Ширина : 1920 пикселей
Высота : 1080 пикселей
Соотношение сторон : 16:9
Режим частоты кадров : Постоянный
Частота кадров : 23,976 кадра/сек
Цветовое пространство : YUV
Субдискретизация насыщенности : 4:2:0
Битовая глубина : 8 бит
Тип развёртки : Прогрессивная
Бит/(Пиксели*Кадры) : 0.100
Размер потока : 1,53 Гбайт (79%)
Заголовок : by AKTEP
Язык : English
Default : Да
Forced : Нет
Основные цвета : BT.709
Характеристики трансфера : BT.709
Коэффициенты матрицы : BT.709

Аудио #1
Идентификатор : 2
Формат : AC-3
Формат/Информация : Audio Coding 3
Расширение режима : CM (complete main)
Параметр Endianness формата : Big
Идентификатор кодека : A_AC3
Продолжительность : 44 м.
Вид битрейта : Постоянный
Битрейт : 448 Кбит/сек
Каналы : 6 каналов
Расположение каналов : Front: L C R, Side: L R, LFE
Частота : 48,0 КГц
Битовая глубина : 16 бит
Метод сжатия : С потерями
Размер потока : 141 Мбайт (7%)
Заголовок : AC3 5.1 448 kbps Многоголосый закадровый - студия "Кравец"
Язык : Russian
Default : Да
Forced : Нет

Аудио #2
Идентификатор : 3
Формат : AC-3
Формат/Информация : Audio Coding 3
Расширение режима : CM (complete main)
Параметр Endianness формата : Big
Идентификатор кодека : A_AC3
Продолжительность : 44 м.
Вид битрейта : Постоянный
Битрейт : 192 Кбит/сек
Каналы : 2 канала
Расположение каналов : Front: L R
Частота : 48,0 КГц
Битовая глубина : 16 бит
Метод сжатия : С потерями
Размер потока : 60,5 Мбайт (3%)
Заголовок : AC3 2.0 192 kbps Одноголосый закадровый - LostFilm (Федосов)
Язык : Russian
Default : Нет
Forced : Нет

Аудио #3
Идентификатор : 4
Формат : AC-3
Формат/Информация : Audio Coding 3
Расширение режима : CM (complete main)
Параметр Endianness формата : Big
Идентификатор кодека : A_AC3
Продолжительность : 44 м.
Вид битрейта : Постоянный
Битрейт : 192 Кбит/сек
Каналы : 2 канала
Расположение каналов : Front: L R
Частота : 48,0 КГц
Битовая глубина : 16 бит
Метод сжатия : С потерями
Размер потока : 60,5 Мбайт (3%)
Заголовок : AC3 2.0 192 kbps Многоголосый закадровый - телеканал Домашний
Язык : Russian
Default : Нет
Forced : Нет

Аудио #4
Идентификатор : 5
Формат : AC-3
Формат/Информация : Audio Coding 3
Расширение режима : CM (complete main)
Параметр Endianness формата : Big
Идентификатор кодека : A_AC3
Продолжительность : 44 м.
Вид битрейта : Постоянный
Битрейт : 384 Кбит/сек
Каналы : 6 каналов
Расположение каналов : Front: L C R, Side: L R, LFE
Частота : 48,0 КГц
Битовая глубина : 16 бит
Метод сжатия : С потерями
Размер потока : 121 Мбайт (6%)
Заголовок : AC3 5.1 384 kbps
Язык : English
Default : Нет
Forced : Нет

Текст #1
Идентификатор : 6
Формат : UTF-8
Идентификатор кодека : S_TEXT/UTF8
Идентификатор кодека/Информация : UTF-8 Plain Text
Язык : English
Default : Нет
Forced : Нет

Текст #2
Идентификатор : 7
Формат : UTF-8
Идентификатор кодека : S_TEXT/UTF8
Идентификатор кодека/Информация : UTF-8 Plain Text
Язык : Russian
Default : Нет
Forced : Нет
Скриншоты:

Время раздачи: 24/7 - круглосуточно / до появления 5-10 сидов
[NNM-Club.me]_House.M.D.S01.1080p.WEB-DL.by.AKTEP.torrent
 Торрент: Платиновая раздача  Зарегистрирован
 
Скачать


Примагнититься
 Зарегистрирован:   08 Июл 2014 11:22:12
 Размер:   43,2 GB  (
 Рейтинг:   4,7 (Голосов: 82)
 Поблагодарили:   273
 Проверка:   Оформление проверено модератором 08 Июл 2014 13:07:31
Как cкачать  ·  Как раздать  ·  Правильно оформить  ·  Поднять ратио!  
zavulonQX
Стаж: 6 лет
Сообщений: 34
Ratio: 26,83
0%
china.gif
спасибо, хотя в таком качестве мне его смотреть негде(( увы проэктор держить тодько 720p
CEBEPu2D ®
Стаж: 8 лет 10 мес.
Сообщений: 198
Ratio: 95,882
Поблагодарили: 3514
100%
Откуда: адукто
russia.gif
zavulonQX
бывает, есть куда рости

_________________
Проблема мира: умные телефоны, и глупые люди
SubМарина
Uploader 300+
Стаж: 8 лет 10 мес.
Сообщений: 702
Ratio: 2187,704
Раздал: 300,6 TB
100%
Откуда: Севастополь
ussr.gif
Как раз сейчас в третий раз пересматриваю Хауса, в озвучке Лоста, другой перевод себе просто не представляю. "Домашний" посмотрела ради интереса первую серию - вообще не то... Может, сила привычки, но как-то не пошло.
Релизёру + за труды, Спасибо!

_________________
razzib
Стаж: 8 лет 3 мес.
Сообщений: 227
Ratio: 3,977
Поблагодарили: 1468
45.48%
krevedko.png
перевод от Лоста - самый лучший!
Menn1
Стаж: 5 лет 2 мес.
Сообщений: 435
Ratio: 38,103
Раздал: 10,65 TB
Поблагодарили: 501
100%
Откуда: Тольятти
russia.gif
razzib писал(а): Перейти к сообщению
перевод от Лоста - самый лучший!

+1, сериал супер
Raniel
Стаж: 9 лет 1 мес.
Сообщений: 171
Ratio: 5,154
100%
ukraine.gif
В свое время был очень самобытный перевод/озвучка от кубиков...

_________________
"Raniel
Аделинда
Стаж: 4 года 10 мес.
Сообщений: 85
Ratio: 129,379
Поблагодарили: 5696
100%
russia.gif
Это единственный сериал, который мне не нравится в Лосте. Посмотрела одну серию во всех трёх переводах (Лост, Кравец, Домашний). По сути перевод практически один в один по тексту, но голоса мне были гораздо приятнее Кравеца. В общем смотрю только в нем Хауса.

_________________
Логика/ Сенсорика/ Интроверсия
Показать сообщения:   
Начать новую тему   Ответить на тему    Торрент-трекер NNM-Club -> Зарубежные сериалы -> Доктор Хаус / House M.D. Часовой пояс: GMT + 3
Страница 1 из 1