Классический форум-трекер
canvas not supported
Нас вместе: 4 094 411

Обратный отсчет / Comet Impact (2007) DVDRip


 
 
RSS
Начать новую тему   Ответить на тему    Торрент-трекер NNM-Club -> Зарубежное кино -> Зарубежные Фильмы (HD*Rip/LQ, DVDRip, SATRip, VHSRip)
Автор Сообщение
ra3wa ®
Модератор Видео
RG Releasers
Uploader 100+
 
Стаж: 9 лет 7 мес.
Сообщений: 12655
Ratio: 9197,373
Раздал: 428,5 TB
Поблагодарили: 2471891
100%
Откуда: Воронеж
russia.gif
Обратный отсчет / Comet Impact (2007) DVDRip
Год выпуска: 2007
Производство: Великобритания
Жанр: Драма

Режиссер: Кит Боак
Актеры: Кристиан Солимено, Джеймс Уилби, Джеймс Космо, Тео-Ва Вонг, Кирсти Митчелл, Майкл Мэлоуни, Дон Уоррингтон, Роуэна Кинг, Кай Мони Абрахам, Кэйн Блэк

Описание фильма:
Американский профессор Нил Гэнт по роду своей деятельности следит за движением небесных тел. Не всех, а тех, что несут опасность для Земли и человечества… Англичанин Джош Хэйден занимается теми же самыми проблемами… После того, как упавший в океан вблизи берегов Ирландии астероид поднял волну цунами, повлекшую за собой чудовищные разрушения в разных точках земного шара, ученые всего мира обнаружили, что астероид — всего лишь маленький фрагмент, отколовшийся от кометы, которая закончит свой путь, вонзившись в Землю, как показали расчеты, где-то на востоке США...

Перевод: Профессиональный многоголосый
Субтитры: Отсутствуют



Продолжительность: 01:37:21
Качество видео: DVDRip

Видеокодек: XviD
Битрейт видео: ~2295 Кбит/с
Размер кадра: 720x400
Аудио:
1. AC3, 6 ch, 448 Кбит/с - русский
2. AC3, 6 ch, 448 Кбит/с - английский

Общее
Полное имя : C:\NNM\Обратный отсчет\Obratnyj otchet 2007 DVDRip.avi
Формат : AVI
Формат/Информация : Audio Video Interleave
Профиль формата : OpenDML
Размер файла : 2,18 Гбайт
Продолжительность : 1 ч. 37 м.
Общий поток : 3209 Кбит/сек
Программа кодирования : VirtualDubModRus 1.5.10.2 (build 2542/release)
Библиотека кодирования : VirtualDubMod build 2542/release

Видео
Идентификатор : 0
Формат : MPEG-4 Visual
Профиль формата : Advanced Simple@L5
Параметр BVOP формата : 1
Параметр QPel формата : Нет
Параметр GMC формата : Без точки перехода
Параметр матрицы формата : Default (MPEG)
Идентификатор кодека : XVID
Идентификатор кодека/Подсказка : XviD
Продолжительность : 1 ч. 37 м.
Битрейт : 2295 Кбит/сек
Ширина : 720 пикселей
Высота : 400 пикселей
Соотношение сторон : 16:9
Частота кадров : 25,000 кадров/сек
Цветовое пространство : YUV
Субдискретизация насыщенности : 4:2:0
Битовая глубина : 8 бит
Тип развёртки : Прогрессивная
Метод сжатия : С потерями
Бит/(Пиксели*Кадры) : 0.319
Размер потока : 1,56 Гбайт (72%)
Библиотека кодирования : XviD 57

Аудио #1
Идентификатор : 1
Формат : AC-3
Формат/Информация : Audio Coding 3
Расширение режима : CM (complete main)
Идентификатор кодека : 2000
Продолжительность : 1 ч. 37 м.
Вид битрейта : Постоянный
Битрейт : 448 Кбит/сек
Каналы : 6 каналов
Расположение каналов : Front: L C R, Side: L R, LFE
Частота : 48,0 КГц
Битовая глубина : 16 бит
Метод сжатия : С потерями
Размер потока : 312 Мбайт (14%)
Выравнивание : Разделение по промежуткам
Продолжительность промежутка : 40 мс. (1,00 видеокадр)
Время предзагрузки промежутка : 500 мс.

Аудио #2
Идентификатор : 2
Формат : AC-3
Формат/Информация : Audio Coding 3
Расширение режима : CM (complete main)
Идентификатор кодека : 2000
Продолжительность : 1 ч. 37 м.
Вид битрейта : Постоянный
Битрейт : 448 Кбит/сек
Каналы : 6 каналов
Расположение каналов : Front: L C R, Side: L R, LFE
Частота : 48,0 КГц
Битовая глубина : 16 бит
Метод сжатия : С потерями
Размер потока : 312 Мбайт (14%)
Выравнивание : Разделение по промежуткам
Продолжительность промежутка : 40 мс. (1,00 видеокадр)
Время предзагрузки промежутка : 500 мс.
Скриншоты: Время раздачи: Круглосуточно до 10 скачавших
[NNM-Club.me]_Obratnyj otchet 2007 DVDRip.avi.torrent
 Торрент: Платиновая раздача  Зарегистрирован
 
Скачать


Примагнититься
 Зарегистрирован:   16 Июл 2014 14:04:42
 Размер:   2,18 GB  (
 Рейтинг:   4,5 (Голосов: 28)
 Поблагодарили:   146
 Проверка:   Оформление проверено модератором 16 Июл 2014 14:06:49
Как cкачать  ·  Как раздать  ·  Правильно оформить  ·  Поднять ратио!  
Показать сообщения:   
Начать новую тему   Ответить на тему    Торрент-трекер NNM-Club -> Зарубежное кино -> Зарубежные Фильмы (HD*Rip/LQ, DVDRip, SATRip, VHSRip) Часовой пояс: GMT + 3
Страница 1 из 1