Классический форум-трекер
canvas not supported
Нас вместе: 4 083 548
Платим за отзывы

Псы (1989) DVDRip


Страницы:  1, 2  След. 
 
RSS
Начать новую тему   Ответить на тему    Торрент-трекер NNM-Club -> Отечественное кино -> Отечественные Фильмы (HD*Rip/LQ, DVDRip, SATRip, VHSRip)
Автор Сообщение
Teodorix ®
Uploader 100+

Online
Стаж: 11 лет 7 мес.
Сообщений: 352
Ratio: 291,462
Поблагодарили: 13248
100%
ussr.gif
Псы (1989) DVDRip
«Просто так ничего не бывает...»

Год выпуска: 1989
Жанр: Триллер, Ужасы, Драма

Описание фильма:
В мертвом советском городе среди среднеазиатских песков обнаружены волки-людоеды, жертвами которых все чаще становятся местные жители. Группа охотников отправляется в заброшенное поселение, чтобы уничтожить монстров. Городок раньше стоял на побережье, был полон жизни, но море ушло, а на его месте образовалась сухая безжизненная пустыня. Вода осталась только в трюме старого танкера. Волков в мертвом городе охотники не нашли, но зато сами себя обнаружили жуткие одичавшие собаки-людоеды, брошенные людьми. Они мстят людям за "предательство", их называют оборотнями.Охваченные страхом и безумием люди начинают истреблять друг друга...

Режиссер: Дмитрий Светозаров
Актеры:
Андрей Краско, Михаил Жигалов, Юрий Кузнецов, Сергей Коковкин, Алексей Крыченков, Андрей Николаев, Райхан Айткожанова, Николай Исполатов, Сергей Архангельский, Александр Суснин


Релиз группа: fairusewizard

Продолжительность: 01:30:00
Качество видео: DVDRip

Видеокодек: XviD
Битрейт видео: 1930 Кбит/с
Размер кадра: 688x512
Аудиокодек: MP3 2.0
Битрейт аудио: 48000Hz, 224 Кбит/с, Joint Stereo
General
Complete name : E:\июль\[1989] Псы (DVDRip).avi
Format : AVI
Format/Info : Audio Video Interleave
File size : 1.37 GiB
Duration : 1h 30mn
Overall bit rate : 2 161 Kbps
Writing library : The best and REALLY easy backup tool

Video
ID : 0
Format : MPEG-4 Visual
Format profile : Advanced Simple@L5
Format settings, BVOP : 1
Format settings, QPel : No
Format settings, GMC : No warppoints
Format settings, Matrix : Default (H.263)
Muxing mode : Packed bitstream
Codec ID : XVID
Codec ID/Hint : XviD
Duration : 1h 30mn
Bit rate : 1 927 Kbps
Width : 688 pixels
Height : 512 pixels
Display aspect ratio : 4:3
Frame rate : 25.000 fps
Color space : YUV
Chroma subsampling : 4:2:0
Bit depth : 8 bits
Scan type : Progressive
Compression mode : Lossy
Bits/(Pixel*Frame) : 0.219
Stream size : 1.22 GiB (89%)
Writing library : XviD 1.1.0 (UTC 2005-11-22)

Audio
ID : 1
Format : MPEG Audio
Format version : Version 1
Format profile : Layer 3
Mode : Joint stereo
Mode extension : MS Stereo
Codec ID : 55
Codec ID/Hint : MP3
Duration : 1h 30mn
Bit rate mode : Constant
Bit rate : 224 Kbps
Channel(s) : 2 channels
Sampling rate : 48.0 KHz
Compression mode : Lossy
Stream size : 145 MiB (10%)
Alignment : Aligned on interleaves
Interleave, duration : 40 ms (1.00 video frame)
Interleave, preload duration : 504 ms
Writing library : LAME3.97b
Encoding settings : -m j -V 4 -q 2 -lowpass 19.4 -b 224
Когда-то, ещё в 1989-ом, смотрел этот фильм в кинотеатре. Ощущения живы до сих пор - было действительно страшно. Тот самый редкий случай, когда кино пугает не навороченными спецэффектами и нарисованными монстрами, а самой своей атмосферой.
Рекомендую.
Скриншоты:

Время раздачи: По возможности.
[1989]_psy_(DVDRip).torrent
 Торрент: Платиновая раздача  Зарегистрирован
 
Скачать


 Зарегистрирован:   12 Май 2008 10:42:09
 Размер:   1,37 GB  (
 Рейтинг:   4,9 (Голосов: 58)
 Поблагодарили:   205
 Проверка:   Оформление проверено модератором 12 Май 2008 15:05:03
Как cкачать  ·  Как раздать  ·  Правильно оформить  ·  Поднять ратио!  
fish75
Стаж: 12 лет 8 мес.
Сообщений: 190
Ratio: 5,13
Поблагодарили: 531
17.53%
ussr.gif
Teodorix писал(а):

Когда-то, ещё в 1989-ом, смотрел этот фильм в кинотеатре. Ощущения живы до сих пор - было действительно страшно. Тот самый редкий случай, когда кино пугает не навороченными спецэффектами и нарисованными монстрами, а самой своей атмосферой.
Рекомендую.

Абсолютно те же ощущения,только смотрел по ТВ,поню до сих пор.Спасибо за фильм.
BDRM
 
Стаж: 12 лет 8 мес.
Сообщений: 1515
Ratio: 32,16
Раздал: 54,36 TB
Поблагодарили: 37885
100%
Откуда: Край летающих собак
ussr.gif
Спасибо за фильм в нормальном качестве!
lihacheff
Стаж: 12 лет 10 мес.
Сообщений: 28
Ratio: 50,983
Поблагодарили: 16
100%
Откуда: Russia
qatar.gif
Teodorix писал(а):
[font:a009833ead="Tahoma"]Псы (1989) DVDRip

Скриншоты:

кажется, все кончилось...
Teodorix ®
Uploader 100+

Online
Стаж: 11 лет 7 мес.
Сообщений: 352
Ratio: 291,462
Поблагодарили: 13248
100%
ussr.gif
lihacheff писал(а):
Teodorix писал(а):
[font:d2af298bc9="Tahoma"]Псы (1989) DVDRip

Скриншоты:

кажется, все кончилось...


Да, похоже, что ресурс savepic.ru накрылся шляпой. Буду перекладывать скриншоты на другой склад.

_________________
Shurique
Стаж: 13 лет 1 мес.
Сообщений: 2
Ratio: 1,248
0%
смотрел давно по телику, до сих пор помнится
lihacheff
Стаж: 12 лет 10 мес.
Сообщений: 28
Ratio: 50,983
Поблагодарили: 16
100%
Откуда: Russia
qatar.gif
Псы есть и у меня
michey28
Стаж: 11 лет 11 мес.
Сообщений: 24
Ratio: 1,94
Поблагодарили: 332
100%
Откуда: Russia
russia.gif
Сильный фильм! Спасибо!
tanais2
Стаж: 11 лет 10 мес.
Сообщений: 1
Ratio: 0,57
один из тех РЕДКИХ случаев , когда снято обыденно , и пугает не обыденность , а то что это ДЕЙСТВИТЕЛЬНО реально..... а городов таких и сейчас хватает :((
Amok
Стаж: 13 лет 1 мес.
Сообщений: 20
Ratio: 3,893
12.71%
Откуда: Оттуда :)
nepal.gif
вернитесь плиз
maicano
Стаж: 11 лет 7 мес.
Сообщений: 3
Ratio: 1,064
4.18%
Видела один раз в детстве. Поразил до глубины души. Очень хотелось посмотреть еще раз. Но все не попадался. Спасибо!
NokkiiA
Стаж: 11 лет 6 мес.
Сообщений: 128
Ratio: 5,475
Раздал: 2,148 TB
Поблагодарили: 1144
100%
Откуда: Оттуда
russia.gif
Хороший фильм, рекомендую всем.
Dr.Grizly
Стаж: 10 лет 9 мес.
Сообщений: 27
Ratio: 7,852
Раздал: 6,331 TB
Поблагодарили: 363
100%
russia.gif
Просто шикарный фильм! До сих пор мурашки по коже, как вспоминаю.....
Спасибо ОГРОМНОЕ!
Burunduk2
Стаж: 10 лет 7 мес.
Сообщений: 2
Ratio: 5,874
100%
russia.gif
Че-то не качается, выолжите кто-нибудь.. пожалста
Denizzzя
Автор КТ
 
Стаж: 12 лет 10 мес.
Сообщений: 85
Ratio: 6,886
Раздал: 2,715 TB
Поблагодарили: 1372
100%
Откуда: Раша
russia.gif
Оставайтесь на раздаче, обязательно на этой неделе буду скачивать и тоже присоединюсь к раздаче

_________________
без пруда не вытащишь и рыбку из него.
Показать сообщения:   
Начать новую тему   Ответить на тему    Торрент-трекер NNM-Club -> Отечественное кино -> Отечественные Фильмы (HD*Rip/LQ, DVDRip, SATRip, VHSRip) Часовой пояс: GMT + 3
Страницы:  1, 2  След.
Страница 1 из 2