Классический форум-трекер
canvas not supported
Нас вместе: 4 079 050

Доктор Хаус / House M.D. (2006-2007) WEB-DL [H.264/1080p-LQ] (Сезон 3, серии 1-24 из 24) LostFilm, Федосов, Домашний


 
 
RSS
Начать новую тему   Ответить на тему    Торрент-трекер NNM-Club -> Зарубежные сериалы -> Доктор Хаус / House M.D.
Автор Сообщение
CEBEPu2D ®
Стаж: 8 лет 11 мес.
Сообщений: 198
Ratio: 94,019
Поблагодарили: 3525
100%
Откуда: адукто
russia.gif

Доктор Хаус / House M.D. (2006-2007) WEB-DL [H.264/1080p-LQ] (Сезон 3, серии 1-24 из 24) LostFilm, Федосов, Домашний
Год выпуска: 2006-2007
Страна: США
Жанр: Комедия, драма
Продолжительность: ~ 00:45:00 серия
Перевод: Профессиональный (многоголосый, одноголосый закадровый) LostFilm, Федосов, Домашний
Режиссер: Дэвид Шор
Актеры: Хью Лори, Лиза Эдельштейн, Омар Эппс, Роберт Шон Леонард, Дженнифер Моррисон, Джесси Спенсер
Описание: Доктор Грегори Хауз (Хью Лори) не отличается проникновенностью в общении с больными и с удовольствием избегает их, если только есть возможность. Он сам всё время проводит в борьбе с собственной болью, а трость в его руке только подчеркивает его жесткую ядовитую манеру общения.
Порой его поведение можно назвать почти бесчеловечным, и при этом он прекрасный врач, обладаюший нетипичным умом и безупречным инстинктом, что снискало ему глубокое уважение. Будучи инфекционистом, он ещё и замечательный диагност, который любит разгадывать медицинские загадки, чтобы спасти кому-то жизнь.
Релизер : Автор Раздачи - АКТЕР aka CEBEPu2D
Работа со звуком: : doc.logan
Озвучка : LostFilm (студия «Кравец»), Федосов, Домашний


Сэмпл / Все раздачи сериала
Качество: WEB-DL (1080p)
Видеокодек: MPEG-4 AVC/H.264
Битрейт видео: ~ 5000 Кбит/с
Размер кадра: 1920x1080
Аудио #1: АС3, 6 ch, 448 Кбит/с (Русский) |LoftFilm|
Аудио #2: АС3, 2 ch, 192 Кбит/с (Русский) |Федосов|
Аудио #3: АС3, 2 ch, 320 Кбит/с (Русский) |Домашний|
Аудио #4: АС3, 6 ch, 384 Кбит/с (Английский)
Вид субтитров: Вшитые, отключаемые
Язык субтитров: Русский, английский
01. Смысл / Meaning
02. Каин и Авель / Cane and Able
03. Официальное согласие / Informed Consent
04. Линии на песке / Lines in the Sand
05. Любовь зла / Fools for Love
06. Будь, что будет / Que Sera Sera
07. Сын коматозника / Son of Coma Guy
08. Из огня да в полымя / Whac-A-Mole
09. В поисках Иуды / Finding Judas
10. Крошечное веселое Рождество / Merry Little Christmas
11. Слова и дела / Words and Deeds /
12. Один день - одна комната / One Day, One Room
13. Иголка в стоге сена / Needle in a Haystack
14. Бесчувственность / Insensitive
15. Недоумок / Half-Wit
16. Совершенно секретно / Top Secret
17. Положение плода / Fetal Position
18. В воздухе / Airborne
19. Веди себя по-взрослому / Act Your Age
20. Воспитание щенков / House Training
21. Семья / Family
22. Увольнение / Resignation
23. Гаденыш / The Jerk
24. Человеческий фактор / Human Error
Полное имя : E:\House.M.D.S03.1080p.WEB-DL.by.AKTEP\House.M.D.S03E01.Meaning.1080p.WEB-DL.by.AKTEP.mkv
Формат : Matroska
Версия формата : Version 4 / Version 2
Размер файла : 1,79 Гбайт
Продолжительность : 43 м.
Общий поток : 5868 Кбит/сек
Дата кодирования : UTC 2014-08-02 09:04:39
Программа кодирования : mkvmerge v6.2.0 ('Promised Land') built on Apr 28 2013 12:22:01
Библиотека кодирования : libebml v1.3.0 + libmatroska v1.4.0
Видео
Идентификатор : 1
Формат : AVC
Формат/Информация : Advanced Video Codec
Профиль формата : High@L4.0
Параметр CABAC формата : Да
Параметр ReFrames формата : 4 кадра
Идентификатор кодека : V_MPEG4/ISO/AVC
Продолжительность : 43 м.
Битрейт : 4599 Кбит/сек
Ширина : 1920 пикселей
Высота : 1080 пикселей
Соотношение сторон : 16:9
Режим частоты кадров : Постоянный
Частота кадров : 23,976 кадра/сек
Цветовое пространство : YUV
Субдискретизация насыщенности : 4:2:0
Битовая глубина : 8 бит
Тип развёртки : Прогрессивная
Бит/(Пиксели*Кадры) : 0.093
Размер потока : 1,40 Гбайт (78%)
Заголовок : by AKTEP
Язык : English
Default : Да
Forced : Нет
Основные цвета : BT.709
Характеристики трансфера : BT.709
Коэффициенты матрицы : BT.709
Аудио #1
Идентификатор : 2
Формат : AC-3
Формат/Информация : Audio Coding 3
Расширение режима : CM (complete main)
Параметр Endianness формата : Big
Идентификатор кодека : A_AC3
Продолжительность : 43 м.
Вид битрейта : Постоянный
Битрейт : 448 Кбит/сек
Каналы : 6 каналов
Расположение каналов : Front: L C R, Side: L R, LFE
Частота : 48,0 КГц
Битовая глубина : 16 бит
Метод сжатия : С потерями
Размер потока : 140 Мбайт (8%)
Заголовок : AC3 5.1 448 kbps Многоголосый закадровый - студия "Кравец"
Язык : Russian
Default : Да
Forced : Нет
Аудио #2
Идентификатор : 3
Формат : AC-3
Формат/Информация : Audio Coding 3
Расширение режима : CM (complete main)
Параметр Endianness формата : Big
Идентификатор кодека : A_AC3
Продолжительность : 43 м.
Вид битрейта : Постоянный
Битрейт : 320 Кбит/сек
Каналы : 2 канала
Расположение каналов : Front: L R
Частота : 48,0 КГц
Битовая глубина : 16 бит
Метод сжатия : С потерями
Размер потока : 99,9 Мбайт (5%)
Заголовок : AC3 2.0 320 kbps Многоголосый закадровый - телеканал Домашний
Язык : Russian
Default : Нет
Forced : Нет
Аудио #3
Идентификатор : 4
Формат : AC-3
Формат/Информация : Audio Coding 3
Расширение режима : CM (complete main)
Параметр Endianness формата : Big
Идентификатор кодека : A_AC3
Продолжительность : 43 м.
Вид битрейта : Постоянный
Битрейт : 384 Кбит/сек
Каналы : 6 каналов
Расположение каналов : Front: L C R, Side: L R, LFE
Частота : 48,0 КГц
Битовая глубина : 16 бит
Метод сжатия : С потерями
Размер потока : 120 Мбайт (7%)
Заголовок : AC3 5.1 384 kbps
Язык : English
Default : Нет
Forced : Нет
Текст #1
Идентификатор : 5
Формат : UTF-8
Идентификатор кодека : S_TEXT/UTF8
Идентификатор кодека/Информация : UTF-8 Plain Text
Язык : Russian
Default : Нет
Forced : Нет
Текст #2
Идентификатор : 6
Формат : UTF-8
Идентификатор кодека : S_TEXT/UTF8
Идентификатор кодека/Информация : UTF-8 Plain Text
Язык : English
Default : Нет
Forced : Нет
Скриншоты:


Время раздачи: 24/7 - круглосуточно / до появления 5-10 сидов

Убедительная просьба скачавших не уходить с раздачи подольше, желательно вечно :) , буду весьма благодарен, и не я 1 думаю
[NNM-Club.me]_House.M.D.S03.1080p.WEB-DL.by.AKTEP.torrent
 Торрент: Платиновая раздача  Зарегистрирован
 
Скачать


Примагнититься
 Зарегистрирован:   10 Авг 2014 15:43:47
 Размер:   44,8 GB  (
 Рейтинг:   4,6 (Голосов: 45)
 Поблагодарили:   135
 Проверка:   Оформление проверено модератором 15 Авг 2014 13:43:02
Как cкачать  ·  Как раздать  ·  Правильно оформить  ·  Поднять ратио!  

_________________
Проблема мира: умные телефоны, и глупые люди
Загрузка...
Neokka
Стаж: 5 лет 10 мес.
Сообщений: 229
Ratio: 62,329
100%
Откуда: Hell
nnm-club.gif
Скачаю буду раздавать, надеюсь на дальнейшее появление сезонов в таком качестве.
CEBEPu2D ®
Стаж: 8 лет 11 мес.
Сообщений: 198
Ratio: 94,019
Поблагодарили: 3525
100%
Откуда: адукто
russia.gif
Kseoxx писал(а): Перейти к сообщению
Скачаю буду раздавать, надеюсь на дальнейшее появление сезонов в таком качестве.

я тоже :подмигивание:

_________________
Проблема мира: умные телефоны, и глупые люди
Indifferente
Стаж: 5 лет 5 мес.
Сообщений: 1
Ratio: 365,289
0%
del
Показать сообщения:   
Начать новую тему   Ответить на тему    Торрент-трекер NNM-Club -> Зарубежные сериалы -> Доктор Хаус / House M.D. Часовой пояс: GMT + 3
Страница 1 из 1