Классический форум-трекер
canvas not supported
Нас вместе: 4 094 202

Randy Newman - Корпорация монстров / Monsters, Inc. (2001) [AAC|WEB-DL|256 кб/с]<Score>


 
 
RSS
Начать новую тему   Ответить на тему    Торрент-трекер NNM-Club -> Аудио и Видео -> Музыка (AAC)
Автор Сообщение
igoryek ®
Стаж: 11 лет
Сообщений: 347
Ratio: 50,98
Поблагодарили: 22890
100%
Randy Newman - Корпорация монстров / Monsters, Inc. (2001)
Год: 2001
Жанр: Score
Продолжительность: 00:55:21

Кодек: AAC
Битрейт: 256 кб/с
Тип битрейта: VBR



Треклист:
01 - If I Didn't Have You (performed by Billy Crystal and John Goodman)
02 - Monsters, Inc.
03 - School
04 - Walk to Work
05 - Sulley and Mike
06 - Randall Appears
07 - Enter the Heroes
08 - The Scarefloor
09 - Oh, Celia!
10 - Boo's Adventures in Monstropolis
11 - Boo is Tired
12 - Putting Boo Back
13 - Boo Escapes!
14 - Celia is Mad
15 - Boo is a Cube
16 - Mike's in Trouble
17 - The Scream Extractor
18 - Sulley Scares Boo
19 - Exile
20 - Randall's Attack
21 - The Ride of the Doors
22 - Waternoose is Waiting
23 - Boo's Going Home
24 - Kitty
25 - If I Didn't Have You
Код:

General
Complete name                            : D:\Sound\Music\Soundtracks\Monsters\Randy Newman - Monsters, Inc. - Score (2001) [AAC]\01 If I Didn't Have You.m4a
Format                                   : MPEG-4
Format profile                           : Apple audio with iTunes info
Codec ID                                 : M4A
File size                                : 7.42 MiB
Duration                                 : 3mn 37s
Overall bit rate mode                    : Variable
Overall bit rate                         : 286 Kbps
Album                                    : Monsters, Inc. (Soundtrack from the Motion Picture)
Album/Performer                          : Randy Newman
Part/Position                            : 1
Part/Total                               : 1
Track name                               : If I Didn't Have You
Track name/Position                      : 1
Track name/Total                         : 25
Performer                                : Billy Crystal & John Goodman
Genre                                    : Soundtrack
ContentType                              : Music
Recorded date                            : UTC 2001-01-01 00:00:00
Encoded date                             : UTC 1997-06-19 05:40:24
Tagged date                              : UTC 2010-09-03 00:33:20
Copyright                                : ℗ 2001 Walt Disney Records / Pixar Animation Studios
Service name                             : iTunes
Cover                                    : Yes
Rating                                   : None
AppleStoreAccount                        : kgalligan67@yahoo.com
AppleStoreCatalogID                      : 161397727
AlbumTitleID                             : 3450681
PlayListID                               : 161397696
GenreID                                  : 16
AppleStoreCountry                        : United States
AppleStoreAccountType                    : iTunes
PurchaseDate                             : 2010-09-02 15:33:14
Vendor                                   : Universal:isrc:USWD10210157
iTunMOVI                                 : <?xml version="1.0" encoding="UTF-8"?> / <!DOCTYPE plist PUBLIC "-//Apple//DTD PLIST 1.0//EN" "http://www.apple.com/DTDs/PropertyList-1.0.dtd"> / <plist version="1.0"> / <dict> /   <key>asset-info</key> /   <dict> /     <key>file-size</key> /     <integer>7777312</integer> /     <key>flavor</key> /     <string>2:256</string> /   </dict> / </dict> / </plist>

Audio
ID                                       : 1
Format                                   : AAC
Format/Info                              : Advanced Audio Codec
Format profile                           : LC
Codec ID                                 : 40
Duration                                 : 3mn 37s
Bit rate mode                            : Variable
Bit rate                                 : 256 Kbps
Maximum bit rate                         : 325 Kbps
Channel(s)                               : 2 channels
Channel positions                        : Front: L R
Sampling rate                            : 44.1 KHz
Compression mode                         : Lossy
Stream size                              : 6.85 MiB (92%)
Language                                 : English
Encoded date                             : UTC 1997-06-19 05:40:24
Tagged date                              : UTC 2010-09-03 00:33:20

General
Complete name                            : D:\Sound\Music\Soundtracks\Monsters\Randy Newman - Monsters, Inc. - Score (2001) [AAC]\02 Monsters, Inc..m4a
Format                                   : MPEG-4
Format profile                           : Apple audio with iTunes info
Codec ID                                 : M4A
File size                                : 4.49 MiB
Duration                                 : 2mn 6s
Overall bit rate mode                    : Variable
Overall bit rate                         : 298 Kbps
Album                                    : Monsters, Inc. (Soundtrack from the Motion Picture)
Album/Performer                          : Randy Newman
Part/Position                            : 1
Part/Total                               : 1
Track name                               : Monsters, Inc.
Track name/Position                      : 2
Track name/Total                         : 25
Performer                                : Randy Newman
Genre                                    : Soundtrack
ContentType                              : Music
Recorded date                            : UTC 2001-01-01 00:00:00
Encoded date                             : UTC 2007-07-26 16:05:28
Tagged date                              : UTC 2010-09-03 00:34:51
Copyright                                : ℗ 2001 Walt Disney Records / Pixar Animation Studios
Service name                             : iTunes
Cover                                    : Yes
Rating                                   : None
AppleStoreAccount                        : kgalligan67@yahoo.com
AppleStoreCatalogID                      : 161397751
AlbumTitleID                             : 200900
PlayListID                               : 161397696
GenreID                                  : 16
AppleStoreCountry                        : United States
AppleStoreAccountType                    : iTunes
PurchaseDate                             : 2010-09-02 15:33:14
Vendor                                   : Universal:isrc:USWD10321170
iTunMOVI                                 : <?xml version="1.0" encoding="UTF-8"?> / <!DOCTYPE plist PUBLIC "-//Apple//DTD PLIST 1.0//EN" "http://www.apple.com/DTDs/PropertyList-1.0.dtd"> / <plist version="1.0"> / <dict> /   <key>asset-info</key> /   <dict> /     <key>file-size</key> /     <integer>4703533</integer> /     <key>flavor</key> /     <string>2:256</string> /   </dict> / </dict> / </plist>

Audio
ID                                       : 1
Format                                   : AAC
Format/Info                              : Advanced Audio Codec
Format profile                           : LC
Codec ID                                 : 40
Duration                                 : 2mn 6s
Bit rate mode                            : Variable
Bit rate                                 : 256 Kbps
Maximum bit rate                         : 328 Kbps
Channel(s)                               : 2 channels
Channel positions                        : Front: L R
Sampling rate                            : 44.1 KHz
Compression mode                         : Lossy
Stream size                              : 3.93 MiB (88%)
Language                                 : English
Encoded date                             : UTC 2007-07-26 16:05:28
Tagged date                              : UTC 2010-09-03 00:34:51

General
Complete name                            : D:\Sound\Music\Soundtracks\Monsters\Randy Newman - Monsters, Inc. - Score (2001) [AAC]\03 School.m4a
Format                                   : MPEG-4
Format profile                           : Apple audio with iTunes info
Codec ID                                 : M4A
File size                                : 3.66 MiB
Duration                                 : 1mn 37s
Overall bit rate mode                    : Variable
Overall bit rate                         : 315 Kbps
Album                                    : Monsters, Inc. (Soundtrack from the Motion Picture)
Album/Performer                          : Randy Newman
Part/Position                            : 1
Part/Total                               : 1
Track name                               : School
Track name/Position                      : 3
Track name/Total                         : 25
Performer                                : Randy Newman
Genre                                    : Soundtrack
ContentType                              : Music
Recorded date                            : UTC 2001-01-01 00:00:00
Encoded date                             : UTC 2015-01-04 04:49:12
Tagged date                              : UTC 2010-09-03 00:27:19
Copyright                                : ℗ 2001 Walt Disney Records / Pixar Animation Studios
Service name                             : iTunes
Cover                                    : Yes
Rating                                   : None
AppleStoreAccount                        : kgalligan67@yahoo.com
AppleStoreCatalogID                      : 161397762
AlbumTitleID                             : 200900
PlayListID                               : 161397696
GenreID                                  : 16
AppleStoreCountry                        : United States
AppleStoreAccountType                    : iTunes
PurchaseDate                             : 2010-09-02 15:33:14
Vendor                                   : Universal:isrc:USWD10321171
iTunMOVI                                 : <?xml version="1.0" encoding="UTF-8"?> / <!DOCTYPE plist PUBLIC "-//Apple//DTD PLIST 1.0//EN" "http://www.apple.com/DTDs/PropertyList-1.0.dtd"> / <plist version="1.0"> / <dict> /   <key>asset-info</key> /   <dict> /     <key>file-size</key> /     <integer>3838561</integer> /     <key>flavor</key> /     <string>2:256</string> /   </dict> / </dict> / </plist>

Audio
ID                                       : 1
Format                                   : AAC
Format/Info                              : Advanced Audio Codec
Format profile                           : LC
Codec ID                                 : 40
Duration                                 : 1mn 37s
Bit rate mode                            : Variable
Bit rate                                 : 256 Kbps
Maximum bit rate                         : 342 Kbps
Channel(s)                               : 2 channels
Channel positions                        : Front: L R
Sampling rate                            : 44.1 KHz
Compression mode                         : Lossy
Stream size                              : 3.11 MiB (85%)
Language                                 : English
Encoded date                             : UTC 2015-01-04 04:49:12
Tagged date                              : UTC 2010-09-03 00:27:19

General
Complete name                            : D:\Sound\Music\Soundtracks\Monsters\Randy Newman - Monsters, Inc. - Score (2001) [AAC]\04 Walk to Work.m4a
Format                                   : MPEG-4
Format profile                           : Apple audio with iTunes info
Codec ID                                 : M4A
File size                                : 7.14 MiB
Duration                                 : 3mn 28s
Overall bit rate mode                    : Variable
Overall bit rate                         : 287 Kbps
Album                                    : Monsters, Inc. (Soundtrack from the Motion Picture)
Album/Performer                          : Randy Newman
Part/Position                            : 1
Part/Total                               : 1
Track name                               : Walk to Work
Track name/Position                      : 4
Track name/Total                         : 25
Performer                                : Randy Newman
Genre                                    : Soundtrack
ContentType                              : Music
Recorded date                            : UTC 2001-01-01 00:00:00
Encoded date                             : UTC 2028-04-19 17:15:52
Tagged date                              : UTC 2010-09-03 00:51:37
Copyright                                : ℗ 2001 Walt Disney Records / Pixar Animation Studios
Service name                             : iTunes
Cover                                    : Yes
Rating                                   : None
AppleStoreAccount                        : kgalligan67@yahoo.com
AppleStoreCatalogID                      : 161397770
AlbumTitleID                             : 200900
PlayListID                               : 161397696
GenreID                                  : 16
AppleStoreCountry                        : United States
AppleStoreAccountType                    : iTunes
PurchaseDate                             : 2010-09-02 15:33:14
Vendor                                   : Universal:isrc:USWD10321172
iTunMOVI                                 : <?xml version="1.0" encoding="UTF-8"?> / <!DOCTYPE plist PUBLIC "-//Apple//DTD PLIST 1.0//EN" "http://www.apple.com/DTDs/PropertyList-1.0.dtd"> / <plist version="1.0"> / <dict> /   <key>asset-info</key> /   <dict> /     <key>file-size</key> /     <integer>7492016</integer> /     <key>flavor</key> /     <string>2:256</string> /   </dict> / </dict> / </plist>

Audio
ID                                       : 1
Format                                   : AAC
Format/Info                              : Advanced Audio Codec
Format profile                           : LC
Codec ID                                 : 40
Duration                                 : 3mn 28s
Bit rate mode                            : Variable
Bit rate                                 : 256 Kbps
Maximum bit rate                         : 323 Kbps
Channel(s)                               : 2 channels
Channel positions                        : Front: L R
Sampling rate                            : 44.1 KHz
Compression mode                         : Lossy
Stream size                              : 6.58 MiB (92%)
Language                                 : English
Encoded date                             : UTC 2028-04-19 17:15:52
Tagged date                              : UTC 2010-09-03 00:51:37

General
Complete name                            : D:\Sound\Music\Soundtracks\Monsters\Randy Newman - Monsters, Inc. - Score (2001) [AAC]\05 Sulley and Mike.m4a
Format                                   : MPEG-4
Format profile                           : Apple audio with iTunes info
Codec ID                                 : M4A
File size                                : 4.44 MiB
Duration                                 : 1mn 57s
Overall bit rate mode                    : Variable
Overall bit rate                         : 317 Kbps
Album                                    : Monsters, Inc. (Soundtrack from the Motion Picture)
Album/Performer                          : Randy Newman
Part/Position                            : 1
Part/Total                               : 1
Track name                               : Sulley and Mike
Track name/Position                      : 5
Track name/Total                         : 25
Performer                                : Randy Newman
Genre                                    : Soundtrack
ContentType                              : Music
Recorded date                            : UTC 2001-01-01 00:00:00
Encoded date                             : UTC 2037-11-13 23:20:40
Tagged date                              : UTC 2010-09-03 00:35:59
Copyright                                : ℗ 2001 Walt Disney Records / Pixar Animation Studios
Service name                             : iTunes
Cover                                    : Yes
Rating                                   : None
AppleStoreAccount                        : kgalligan67@yahoo.com
AppleStoreCatalogID                      : 161397777
AlbumTitleID                             : 200900
PlayListID                               : 161397696
GenreID                                  : 16
AppleStoreCountry                        : United States
AppleStoreAccountType                    : iTunes
PurchaseDate                             : 2010-09-02 15:33:14
Vendor                                   : Universal:isrc:USWD10321173
iTunMOVI                                 : <?xml version="1.0" encoding="UTF-8"?> / <!DOCTYPE plist PUBLIC "-//Apple//DTD PLIST 1.0//EN" "http://www.apple.com/DTDs/PropertyList-1.0.dtd"> / <plist version="1.0"> / <dict> /   <key>asset-info</key> /   <dict> /     <key>file-size</key> /     <integer>4660829</integer> /     <key>flavor</key> /     <string>2:256</string> /   </dict> / </dict> / </plist>

Audio
ID                                       : 1
Format                                   : AAC
Format/Info                              : Advanced Audio Codec
Format profile                           : LC
Codec ID                                 : 40
Duration                                 : 1mn 57s
Bit rate mode                            : Variable
Bit rate                                 : 277 Kbps
Nominal bit rate                         : 256 Kbps
Maximum bit rate                         : 313 Kbps
Channel(s)                               : 2 channels
Channel positions                        : Front: L R
Sampling rate                            : 44.1 KHz
Compression mode                         : Lossy
Stream size                              : 3.89 MiB (88%)
Language                                 : English
Encoded date                             : UTC 2037-11-13 23:20:40
Tagged date                              : UTC 2010-09-03 00:35:59

General
Complete name                            : D:\Sound\Music\Soundtracks\Monsters\Randy Newman - Monsters, Inc. - Score (2001) [AAC]\06 Randall Appears.m4a
Format                                   : MPEG-4
Format profile                           : Apple audio with iTunes info
Codec ID                                 : M4A
File size                                : 2.06 MiB
Duration                                 : 48s 971ms
Overall bit rate mode                    : Variable
Overall bit rate                         : 353 Kbps
Album                                    : Monsters, Inc. (Soundtrack from the Motion Picture)
Album/Performer                          : Randy Newman
Part/Position                            : 1
Part/Total                               : 1
Track name                               : Randall Appears
Track name/Position                      : 6
Track name/Total                         : 25
Performer                                : Randy Newman
Genre                                    : Soundtrack
ContentType                              : Music
Recorded date                            : UTC 2001-01-01 00:00:00
Tagged date                              : UTC 2010-09-03 00:36:11
Copyright                                : ℗ 2001 Walt Disney Records / Pixar Animation Studios
Service name                             : iTunes
Cover                                    : Yes
Rating                                   : None
AppleStoreAccount                        : kgalligan67@yahoo.com
AppleStoreCatalogID                      : 161397799
AlbumTitleID                             : 200900
PlayListID                               : 161397696
GenreID                                  : 16
AppleStoreCountry                        : United States
AppleStoreAccountType                    : iTunes
PurchaseDate                             : 2010-09-02 15:33:14
Vendor                                   : Universal:isrc:USWD10321174
iTunMOVI                                 : <?xml version="1.0" encoding="UTF-8"?> / <!DOCTYPE plist PUBLIC "-//Apple//DTD PLIST 1.0//EN" "http://www.apple.com/DTDs/PropertyList-1.0.dtd"> / <plist version="1.0"> / <dict> /   <key>asset-info</key> /   <dict> /     <key>file-size</key> /     <integer>2161284</integer> /     <key>flavor</key> /     <string>2:256</string> /   </dict> / </dict> / </plist>

Audio
ID                                       : 1
Format                                   : AAC
Format/Info                              : Advanced Audio Codec
Format profile                           : LC
Codec ID                                 : 40
Duration                                 : 48s 971ms
Bit rate mode                            : Variable
Bit rate                                 : 256 Kbps
Maximum bit rate                         : 329 Kbps
Channel(s)                               : 2 channels
Channel positions                        : Front: L R
Sampling rate                            : 44.1 KHz
Compression mode                         : Lossy
Stream size                              : 1.52 MiB (74%)
Language                                 : English
Tagged date                              : UTC 2010-09-03 00:36:11

General
Complete name                            : D:\Sound\Music\Soundtracks\Monsters\Randy Newman - Monsters, Inc. - Score (2001) [AAC]\10 Boo's Adventures In Monstropolis.m4a
Format                                   : MPEG-4
Format profile                           : Apple audio with iTunes info
Codec ID                                 : M4A
File size                                : 12.7 MiB
Duration                                 : 6mn 22s
Overall bit rate mode                    : Variable
Overall bit rate                         : 278 Kbps
Album                                    : Monsters, Inc. (Soundtrack from the Motion Picture)
Album/Performer                          : Randy Newman
Part/Position                            : 1
Part/Total                               : 1
Track name                               : Boo's Adventures In Monstropolis
Track name/Position                      : 10
Track name/Total                         : 25
Performer                                : Randy Newman
Genre                                    : Soundtrack
ContentType                              : Music
Recorded date                            : UTC 2001-01-01 00:00:00
Tagged date                              : UTC 2010-09-03 00:56:29
Copyright                                : ℗ 2001 Walt Disney Records / Pixar Animation Studios
Service name                             : iTunes
Cover                                    : Yes
Rating                                   : None
AppleStoreAccount                        : kgalligan67@yahoo.com
AppleStoreCatalogID                      : 161397837
AlbumTitleID                             : 200900
PlayListID                               : 161397696
GenreID                                  : 16
AppleStoreCountry                        : United States
AppleStoreAccountType                    : iTunes
PurchaseDate                             : 2010-09-02 15:33:14
Vendor                                   : Universal:isrc:USWD10321178
iTunMOVI                                 : <?xml version="1.0" encoding="UTF-8"?> / <!DOCTYPE plist PUBLIC "-//Apple//DTD PLIST 1.0//EN" "http://www.apple.com/DTDs/PropertyList-1.0.dtd"> / <plist version="1.0"> / <dict> /   <key>asset-info</key> /   <dict> /     <key>file-size</key> /     <integer>13289337</integer> /     <key>flavor</key> /     <string>2:256</string> /   </dict> / </dict> / </plist>

Audio
ID                                       : 1
Format                                   : AAC
Format/Info                              : Advanced Audio Codec
Format profile                           : LC
Codec ID                                 : 40
Duration                                 : 6mn 22s
Bit rate mode                            : Variable
Bit rate                                 : 256 Kbps
Maximum bit rate                         : 351 Kbps
Channel(s)                               : 2 channels
Channel positions                        : Front: L R
Sampling rate                            : 44.1 KHz
Compression mode                         : Lossy
Stream size                              : 12.1 MiB (95%)
Language                                 : English
Tagged date                              : UTC 2010-09-03 00:56:29

General
Complete name                            : D:\Sound\Music\Soundtracks\Monsters\Randy Newman - Monsters, Inc. - Score (2001) [AAC]\11 Boo's Tired.m4a
Format                                   : MPEG-4
Format profile                           : Apple audio with iTunes info
Codec ID                                 : M4A
File size                                : 2.53 MiB
Duration                                 : 1mn 3s
Overall bit rate mode                    : Variable
Overall bit rate                         : 333 Kbps
Album                                    : Monsters, Inc. (Soundtrack from the Motion Picture)
Album/Performer                          : Randy Newman
Part/Position                            : 1
Part/Total                               : 1
Track name                               : Boo's Tired
Track name/Position                      : 11
Track name/Total                         : 25
Performer                                : Randy Newman
Genre                                    : Soundtrack
ContentType                              : Music
Recorded date                            : UTC 2001-01-01 00:00:00
Tagged date                              : UTC 2010-09-03 00:51:32
Copyright                                : ℗ 2001 Walt Disney Records / Pixar Animation Studios
Service name                             : iTunes
Cover                                    : Yes
Rating                                   : None
AppleStoreAccount                        : kgalligan67@yahoo.com
AppleStoreCatalogID                      : 161397840
AlbumTitleID                             : 200900
PlayListID                               : 161397696
GenreID                                  : 16
AppleStoreCountry                        : United States
AppleStoreAccountType                    : iTunes
PurchaseDate                             : 2010-09-02 15:33:14
Vendor                                   : Universal:isrc:USWD10321179
iTunMOVI                                 : <?xml version="1.0" encoding="UTF-8"?> / <!DOCTYPE plist PUBLIC "-//Apple//DTD PLIST 1.0//EN" "http://www.apple.com/DTDs/PropertyList-1.0.dtd"> / <plist version="1.0"> / <dict> /   <key>asset-info</key> /   <dict> /     <key>file-size</key> /     <integer>2651407</integer> /     <key>flavor</key> /     <string>2:256</string> /   </dict> / </dict> / </plist>

Audio
ID                                       : 1
Format                                   : AAC
Format/Info                              : Advanced Audio Codec
Format profile                           : LC
Codec ID                                 : 40
Duration                                 : 1mn 3s
Bit rate mode                            : Variable
Bit rate                                 : 256 Kbps
Maximum bit rate                         : 311 Kbps
Channel(s)                               : 2 channels
Channel positions                        : Front: L R
Sampling rate                            : 44.1 KHz
Compression mode                         : Lossy
Stream size                              : 1.99 MiB (79%)
Language                                 : English
Tagged date                              : UTC 2010-09-03 00:51:32

General
Complete name                            : D:\Sound\Music\Soundtracks\Monsters\Randy Newman - Monsters, Inc. - Score (2001) [AAC]\12 Putting Boo Back.m4a
Format                                   : MPEG-4
Format profile                           : Apple audio with iTunes info
Codec ID                                 : M4A
File size                                : 4.98 MiB
Duration                                 : 2mn 21s
Overall bit rate mode                    : Variable
Overall bit rate                         : 295 Kbps
Album                                    : Monsters, Inc. (Soundtrack from the Motion Picture)
Album/Performer                          : Randy Newman
Part/Position                            : 1
Part/Total                               : 1
Track name                               : Putting Boo Back
Track name/Position                      : 12
Track name/Total                         : 25
Performer                                : Randy Newman
Genre                                    : Soundtrack
ContentType                              : Music
Recorded date                            : UTC 2001-01-01 00:00:00
Encoded date                             : UTC 1971-06-02 03:19:36
Tagged date                              : UTC 2010-09-03 00:53:16
Copyright                                : ℗ 2001 Walt Disney Records / Pixar Animation Studios
Service name                             : iTunes
Cover                                    : Yes
Rating                                   : None
AppleStoreAccount                        : kgalligan67@yahoo.com
AppleStoreCatalogID                      : 161397848
AlbumTitleID                             : 200900
PlayListID                               : 161397696
GenreID                                  : 16
AppleStoreCountry                        : United States
AppleStoreAccountType                    : iTunes
PurchaseDate                             : 2010-09-02 15:33:14
Vendor                                   : Universal:isrc:USWD10321180
iTunMOVI                                 : <?xml version="1.0" encoding="UTF-8"?> / <!DOCTYPE plist PUBLIC "-//Apple//DTD PLIST 1.0//EN" "http://www.apple.com/DTDs/PropertyList-1.0.dtd"> / <plist version="1.0"> / <dict> /   <key>asset-info</key> /   <dict> /     <key>file-size</key> /     <integer>5220217</integer> /     <key>flavor</key> /     <string>2:256</string> /   </dict> / </dict> / </plist>

Audio
ID                                       : 1
Format                                   : AAC
Format/Info                              : Advanced Audio Codec
Format profile                           : LC
Codec ID                                 : 40
Duration                                 : 2mn 21s
Bit rate mode                            : Variable
Bit rate                                 : 256 Kbps
Maximum bit rate                         : 310 Kbps
Channel(s)                               : 2 channels
Channel positions                        : Front: L R
Sampling rate                            : 44.1 KHz
Compression mode                         : Lossy
Stream size                              : 4.42 MiB (89%)
Language                                 : English
Encoded date                             : UTC 1971-06-02 03:19:36
Tagged date                              : UTC 2010-09-03 00:53:16

General
Complete name                            : D:\Sound\Music\Soundtracks\Monsters\Randy Newman - Monsters, Inc. - Score (2001) [AAC]\13 Boo Escapes.m4a
Format                                   : MPEG-4
Format profile                           : Apple audio with iTunes info
Codec ID                                 : M4A
File size                                : 2.15 MiB
Duration                                 : 51s 804ms
Overall bit rate mode                    : Variable
Overall bit rate                         : 348 Kbps
Album                                    : Monsters, Inc. (Soundtrack from the Motion Picture)
Album/Performer                          : Randy Newman
Part/Position                            : 1
Part/Total                               : 1
Track name                               : Boo Escapes
Track name/Position                      : 13
Track name/Total                         : 25
Performer                                : Randy Newman
Genre                                    : Soundtrack
ContentType                              : Music
Recorded date                            : UTC 2001-01-01 00:00:00
Encoded date                             : UTC 1976-09-24 22:42:16
Tagged date                              : UTC 2010-09-03 00:52:20
Copyright                                : ℗ 2001 Walt Disney Records / Pixar Animation Studios
Service name                             : iTunes
Cover                                    : Yes
Rating                                   : None
AppleStoreAccount                        : kgalligan67@yahoo.com
AppleStoreCatalogID                      : 161397856
AlbumTitleID                             : 200900
PlayListID                               : 161397696
GenreID                                  : 16
AppleStoreCountry                        : United States
AppleStoreAccountType                    : iTunes
PurchaseDate                             : 2010-09-02 15:33:14
Vendor                                   : Universal:isrc:USWD10321181
iTunMOVI                                 : <?xml version="1.0" encoding="UTF-8"?> / <!DOCTYPE plist PUBLIC "-//Apple//DTD PLIST 1.0//EN" "http://www.apple.com/DTDs/PropertyList-1.0.dtd"> / <plist version="1.0"> / <dict> /   <key>asset-info</key> /   <dict> /     <key>file-size</key> /     <integer>2250548</integer> /     <key>flavor</key> /     <string>2:256</string> /   </dict> / </dict> / </plist>

Audio
ID                                       : 1
Format                                   : AAC
Format/Info                              : Advanced Audio Codec
Format profile                           : LC
Codec ID                                 : 40
Duration                                 : 51s 804ms
Bit rate mode                            : Variable
Bit rate                                 : 256 Kbps
Maximum bit rate                         : 381 Kbps
Channel(s)                               : 2 channels
Channel positions                        : Front: L R
Sampling rate                            : 44.1 KHz
Compression mode                         : Lossy
Stream size                              : 1.61 MiB (75%)
Language                                 : English
Encoded date                             : UTC 1976-09-24 22:42:16
Tagged date                              : UTC 2010-09-03 00:52:20

General
Complete name                            : D:\Sound\Music\Soundtracks\Monsters\Randy Newman - Monsters, Inc. - Score (2001) [AAC]\14 Celia's Mad.m4a
Format                                   : MPEG-4
Format profile                           : Apple audio with iTunes info
Codec ID                                 : M4A
File size                                : 3.66 MiB
Duration                                 : 1mn 40s
Overall bit rate mode                    : Variable
Overall bit rate                         : 307 Kbps
Album                                    : Monsters, Inc. (Soundtrack from the Motion Picture)
Album/Performer                          : Randy Newman
Part/Position                            : 1
Part/Total                               : 1
Track name                               : Celia's Mad
Track name/Position                      : 14
Track name/Total                         : 25
Performer                                : Randy Newman
Genre                                    : Soundtrack
ContentType                              : Music
Recorded date                            : UTC 2001-01-01 00:00:00
Encoded date                             : UTC 1984-09-15 15:46:16
Tagged date                              : UTC 2010-09-03 00:53:37
Copyright                                : ℗ 2001 Walt Disney Records / Pixar Animation Studios
Service name                             : iTunes
Cover                                    : Yes
Rating                                   : None
AppleStoreAccount                        : kgalligan67@yahoo.com
AppleStoreCatalogID                      : 161397865
AlbumTitleID                             : 200900
PlayListID                               : 161397696
GenreID                                  : 16
AppleStoreCountry                        : United States
AppleStoreAccountType                    : iTunes
PurchaseDate                             : 2010-09-02 15:33:14
Vendor                                   : Universal:isrc:USWD10321182
iTunMOVI                                 : <?xml version="1.0" encoding="UTF-8"?> / <!DOCTYPE plist PUBLIC "-//Apple//DTD PLIST 1.0//EN" "http://www.apple.com/DTDs/PropertyList-1.0.dtd"> / <plist version="1.0"> / <dict> /   <key>asset-info</key> /   <dict> /     <key>file-size</key> /     <integer>3840901</integer> /     <key>flavor</key> /     <string>2:256</string> /   </dict> / </dict> / </plist>

Audio
ID                                       : 1
Format                                   : AAC
Format/Info                              : Advanced Audio Codec
Format profile                           : LC
Codec ID                                 : 40
Duration                                 : 1mn 40s
Bit rate mode                            : Variable
Bit rate                                 : 256 Kbps
Maximum bit rate                         : 332 Kbps
Channel(s)                               : 2 channels
Channel positions                        : Front: L R
Sampling rate                            : 44.1 KHz
Compression mode                         : Lossy
Stream size                              : 3.11 MiB (85%)
Language                                 : English
Encoded date                             : UTC 1984-09-15 15:46:16
Tagged date                              : UTC 2010-09-03 00:53:37

General
Complete name                            : D:\Sound\Music\Soundtracks\Monsters\Randy Newman - Monsters, Inc. - Score (2001) [AAC]\15 Boo Is a Cube.m4a
Format                                   : MPEG-4
Format profile                           : Apple audio with iTunes info
Codec ID                                 : M4A
File size                                : 4.88 MiB
Duration                                 : 2mn 18s
Overall bit rate mode                    : Variable
Overall bit rate                         : 296 Kbps
Album                                    : Monsters, Inc. (Soundtrack from the Motion Picture)
Album/Performer                          : Randy Newman
Part/Position                            : 1
Part/Total                               : 1
Track name                               : Boo Is a Cube
Track name/Position                      : 15
Track name/Total                         : 25
Performer                                : Randy Newman
Genre                                    : Soundtrack
ContentType                              : Music
Recorded date                            : UTC 2001-01-01 00:00:00
Encoded date                             : UTC 1994-10-23 02:11:20
Tagged date                              : UTC 2010-09-03 00:54:53
Copyright                                : ℗ 2001 Walt Disney Records / Pixar Animation Studios
Service name                             : iTunes
Cover                                    : Yes
Rating                                   : None
AppleStoreAccount                        : kgalligan67@yahoo.com
AppleStoreCatalogID                      : 161397874
AlbumTitleID                             : 200900
PlayListID                               : 161397696
GenreID                                  : 16
AppleStoreCountry                        : United States
AppleStoreAccountType                    : iTunes
PurchaseDate                             : 2010-09-02 15:33:14
Vendor                                   : Universal:isrc:USWD10321183
iTunMOVI                                 : <?xml version="1.0" encoding="UTF-8"?> / <!DOCTYPE plist PUBLIC "-//Apple//DTD PLIST 1.0//EN" "http://www.apple.com/DTDs/PropertyList-1.0.dtd"> / <plist version="1.0"> / <dict> /   <key>asset-info</key> /   <dict> /     <key>file-size</key> /     <integer>5114022</integer> /     <key>flavor</key> /     <string>2:256</string> /   </dict> / </dict> / </plist>

Audio
ID                                       : 1
Format                                   : AAC
Format/Info                              : Advanced Audio Codec
Format profile                           : LC
Codec ID                                 : 40
Duration                                 : 2mn 18s
Bit rate mode                            : Variable
Bit rate                                 : 256 Kbps
Maximum bit rate                         : 331 Kbps
Channel(s)                               : 2 channels
Channel positions                        : Front: L R
Sampling rate                            : 44.1 KHz
Compression mode                         : Lossy
Stream size                              : 4.32 MiB (89%)
Language                                 : English
Encoded date                             : UTC 1994-10-23 02:11:20
Tagged date                              : UTC 2010-09-03 00:54:53

General
Complete name                            : D:\Sound\Music\Soundtracks\Monsters\Randy Newman - Monsters, Inc. - Score (2001) [AAC]\16 Mike's In Trouble.m4a
Format                                   : MPEG-4
Format profile                           : Apple audio with iTunes info
Codec ID                                 : M4A
File size                                : 4.91 MiB
Duration                                 : 2mn 17s
Overall bit rate mode                    : Variable
Overall bit rate                         : 299 Kbps
Album                                    : Monsters, Inc. (Soundtrack from the Motion Picture)
Album/Performer                          : Randy Newman
Part/Position                            : 1
Part/Total                               : 1
Track name                               : Mike's In Trouble
Track name/Position                      : 16
Track name/Total                         : 25
Performer                                : Randy Newman
Genre                                    : Soundtrack
ContentType                              : Music
Recorded date                            : UTC 2001-01-01 00:00:00
Encoded date                             : UTC 2004-05-18 08:16:08
Tagged date                              : UTC 2010-09-03 00:55:13
Copyright                                : ℗ 2001 Walt Disney Records / Pixar Animation Studios
Service name                             : iTunes
Cover                                    : Yes
Rating                                   : None
AppleStoreAccount                        : kgalligan67@yahoo.com
AppleStoreCatalogID                      : 161397880
AlbumTitleID                             : 200900
PlayListID                               : 161397696
GenreID                                  : 16
AppleStoreCountry                        : United States
AppleStoreAccountType                    : iTunes
PurchaseDate                             : 2010-09-02 15:33:14
Vendor                                   : Universal:isrc:USWD10321184
iTunMOVI                                 : <?xml version="1.0" encoding="UTF-8"?> / <!DOCTYPE plist PUBLIC "-//Apple//DTD PLIST 1.0//EN" "http://www.apple.com/DTDs/PropertyList-1.0.dtd"> / <plist version="1.0"> / <dict> /   <key>asset-info</key> /   <dict> /     <key>file-size</key> /     <integer>5148180</integer> /     <key>flavor</key> /     <string>2:256</string> /   </dict> / </dict> / </plist>

Audio
ID                                       : 1
Format                                   : AAC
Format/Info                              : Advanced Audio Codec
Format profile                           : LC
Codec ID                                 : 40
Duration                                 : 2mn 17s
Bit rate mode                            : Variable
Bit rate                                 : 256 Kbps
Maximum bit rate                         : 337 Kbps
Channel(s)                               : 2 channels
Channel positions                        : Front: L R
Sampling rate                            : 44.1 KHz
Compression mode                         : Lossy
Stream size                              : 4.35 MiB (89%)
Language                                 : English
Encoded date                             : UTC 2004-05-18 08:16:08
Tagged date                              : UTC 2010-09-03 00:55:13

General
Complete name                            : D:\Sound\Music\Soundtracks\Monsters\Randy Newman - Monsters, Inc. - Score (2001) [AAC]\17 The Scream Extractor.m4a
Format                                   : MPEG-4
Format profile                           : Apple audio with iTunes info
Codec ID                                 : M4A
File size                                : 4.73 MiB
Duration                                 : 2mn 11s
Overall bit rate mode                    : Variable
Overall bit rate                         : 301 Kbps
Album                                    : Monsters, Inc. (Soundtrack from the Motion Picture)
Album/Performer                          : Randy Newman
Part/Position                            : 1
Part/Total                               : 1
Track name                               : The Scream Extractor
Track name/Position                      : 17
Track name/Total                         : 25
Performer                                : Randy Newman
Genre                                    : Soundtrack
ContentType                              : Music
Recorded date                            : UTC 2001-01-01 00:00:00
Encoded date                             : UTC 2014-06-24 18:41:12
Tagged date                              : UTC 2010-09-03 00:56:34
Copyright                                : ℗ 2001 Walt Disney Records / Pixar Animation Studios
Service name                             : iTunes
Cover                                    : Yes
Rating                                   : None
AppleStoreAccount                        : kgalligan67@yahoo.com
AppleStoreCatalogID                      : 161397883
AlbumTitleID                             : 200900
PlayListID                               : 161397696
GenreID                                  : 16
AppleStoreCountry                        : United States
AppleStoreAccountType                    : iTunes
PurchaseDate                             : 2010-09-02 15:33:14
Title/Sort                               : Scream Extractor
Vendor                                   : Universal:isrc:USWD10321185
iTunMOVI                                 : <?xml version="1.0" encoding="UTF-8"?> / <!DOCTYPE plist PUBLIC "-//Apple//DTD PLIST 1.0//EN" "http://www.apple.com/DTDs/PropertyList-1.0.dtd"> / <plist version="1.0"> / <dict> /   <key>asset-info</key> /   <dict> /     <key>file-size</key> /     <integer>4954796</integer> /     <key>flavor</key> /     <string>2:256</string> /   </dict> / </dict> / </plist>

Audio
ID                                       : 1
Format                                   : AAC
Format/Info                              : Advanced Audio Codec
Format profile                           : LC
Codec ID                                 : 40
Duration                                 : 2mn 11s
Bit rate mode                            : Variable
Bit rate                                 : 256 Kbps
Maximum bit rate                         : 327 Kbps
Channel(s)                               : 2 channels
Channel positions                        : Front: L R
Sampling rate                            : 44.1 KHz
Compression mode                         : Lossy
Stream size                              : 4.17 MiB (88%)
Language                                 : English
Encoded date                             : UTC 2014-06-24 18:41:12
Tagged date                              : UTC 2010-09-03 00:56:34

General
Complete name                            : D:\Sound\Music\Soundtracks\Monsters\Randy Newman - Monsters, Inc. - Score (2001) [AAC]\18 Sulley Scares Boo.m4a
Format                                   : MPEG-4
Format profile                           : Apple audio with iTunes info
Codec ID                                 : M4A
File size                                : 2.68 MiB
Duration                                 : 1mn 8s
Overall bit rate mode                    : Variable
Overall bit rate                         : 327 Kbps
Album                                    : Monsters, Inc. (Soundtrack from the Motion Picture)
Album/Performer                          : Randy Newman
Part/Position                            : 1
Part/Total                               : 1
Track name                               : Sulley Scares Boo
Track name/Position                      : 18
Track name/Total                         : 25
Performer                                : Randy Newman
Genre                                    : Soundtrack
ContentType                              : Music
Recorded date                            : UTC 2001-01-01 00:00:00
Encoded date                             : UTC 2021-05-23 03:04:40
Tagged date                              : UTC 2010-09-03 00:56:10
Copyright                                : ℗ 2001 Walt Disney Records / Pixar Animation Studios
Service name                             : iTunes
Cover                                    : Yes
Rating                                   : None
AppleStoreAccount                        : kgalligan67@yahoo.com
AppleStoreCatalogID                      : 161397891
AlbumTitleID                             : 200900
PlayListID                               : 161397696
GenreID                                  : 16
AppleStoreCountry                        : United States
AppleStoreAccountType                    : iTunes
PurchaseDate                             : 2010-09-02 15:33:14
Vendor                                   : Universal:isrc:USWD10321186
iTunMOVI                                 : <?xml version="1.0" encoding="UTF-8"?> / <!DOCTYPE plist PUBLIC "-//Apple//DTD PLIST 1.0//EN" "http://www.apple.com/DTDs/PropertyList-1.0.dtd"> / <plist version="1.0"> / <dict> /   <key>asset-info</key> /   <dict> /     <key>file-size</key> /     <integer>2811016</integer> /     <key>flavor</key> /     <string>2:256</string> /   </dict> / </dict> / </plist>

Audio
ID                                       : 1
Format                                   : AAC
Format/Info                              : Advanced Audio Codec
Format profile                           : LC
Codec ID                                 : 40
Duration                                 : 1mn 8s
Bit rate mode                            : Variable
Bit rate                                 : 256 Kbps
Maximum bit rate                         : 302 Kbps
Channel(s)                               : 2 channels
Channel positions                        : Front: L R
Sampling rate                            : 44.1 KHz
Compression mode                         : Lossy
Stream size                              : 2.14 MiB (80%)
Language                                 : English
Encoded date                             : UTC 2021-05-23 03:04:40
Tagged date                              : UTC 2010-09-03 00:56:10

General
Complete name                            : D:\Sound\Music\Soundtracks\Monsters\Randy Newman - Monsters, Inc. - Score (2001) [AAC]\19 Exile.m4a
Format                                   : MPEG-4
Format profile                           : Apple audio with iTunes info
Codec ID                                 : M4A
File size                                : 4.84 MiB
Duration                                 : 2mn 16s
Overall bit rate mode                    : Variable
Overall bit rate                         : 297 Kbps
Album                                    : Monsters, Inc. (Soundtrack from the Motion Picture)
Album/Performer                          : Randy Newman
Part/Position                            : 1
Part/Total                               : 1
Track name                               : Exile
Track name/Position                      : 19
Track name/Total                         : 25
Performer                                : Randy Newman
Genre                                    : Soundtrack
ContentType                              : Music
Recorded date                            : UTC 2001-01-01 00:00:00
Encoded date                             : UTC 2030-12-17 09:09:28
Tagged date                              : UTC 2010-09-03 00:57:46
Copyright                                : ℗ 2001 Walt Disney Records / Pixar Animation Studios
Service name                             : iTunes
Cover                                    : Yes
Rating                                   : None
AppleStoreAccount                        : kgalligan67@yahoo.com
AppleStoreCatalogID                      : 161397900
AlbumTitleID                             : 200900
PlayListID                               : 161397696
GenreID                                  : 16
AppleStoreCountry                        : United States
AppleStoreAccountType                    : iTunes
PurchaseDate                             : 2010-09-02 15:33:14
Vendor                                   : Universal:isrc:USWD10321187
iTunMOVI                                 : <?xml version="1.0" encoding="UTF-8"?> / <!DOCTYPE plist PUBLIC "-//Apple//DTD PLIST 1.0//EN" "http://www.apple.com/DTDs/PropertyList-1.0.dtd"> / <plist version="1.0"> / <dict> /   <key>asset-info</key> /   <dict> /     <key>file-size</key> /     <integer>5070312</integer> /     <key>flavor</key> /     <string>2:256</string> /   </dict> / </dict> / </plist>

Audio
ID                                       : 1
Format                                   : AAC
Format/Info                              : Advanced Audio Codec
Format profile                           : LC
Codec ID                                 : 40
Duration                                 : 2mn 16s
Bit rate mode                            : Variable
Bit rate                                 : 256 Kbps
Maximum bit rate                         : 317 Kbps
Channel(s)                               : 2 channels
Channel positions                        : Front: L R
Sampling rate                            : 44.1 KHz
Compression mode                         : Lossy
Stream size                              : 4.28 MiB (89%)
Language                                 : English
Encoded date                             : UTC 2030-12-17 09:09:28
Tagged date                              : UTC 2010-09-03 00:57:46

General
Complete name                            : D:\Sound\Music\Soundtracks\Monsters\Randy Newman - Monsters, Inc. - Score (2001) [AAC]\20 Randall's Attack.m4a
Format                                   : MPEG-4
Format profile                           : Apple audio with iTunes info
Codec ID                                 : M4A
File size                                : 4.99 MiB
Duration                                 : 2mn 21s
Overall bit rate mode                    : Variable
Overall bit rate                         : 295 Kbps
Album                                    : Monsters, Inc. (Soundtrack from the Motion Picture)
Album/Performer                          : Randy Newman
Part/Position                            : 1
Part/Total                               : 1
Track name                               : Randall's Attack
Track name/Position                      : 20
Track name/Total                         : 25
Performer                                : Randy Newman
Genre                                    : Soundtrack
ContentType                              : Music
Recorded date                            : UTC 2001-01-01 00:00:00
Tagged date                              : UTC 2010-09-03 00:58:13
Copyright                                : ℗ 2001 Walt Disney Records / Pixar Animation Studios
Service name                             : iTunes
Cover                                    : Yes
Rating                                   : None
AppleStoreAccount                        : kgalligan67@yahoo.com
AppleStoreCatalogID                      : 161397906
AlbumTitleID                             : 200900
PlayListID                               : 161397696
GenreID                                  : 16
AppleStoreCountry                        : United States
AppleStoreAccountType                    : iTunes
PurchaseDate                             : 2010-09-02 15:33:14
Vendor                                   : Universal:isrc:USWD10321188
iTunMOVI                                 : <?xml version="1.0" encoding="UTF-8"?> / <!DOCTYPE plist PUBLIC "-//Apple//DTD PLIST 1.0//EN" "http://www.apple.com/DTDs/PropertyList-1.0.dtd"> / <plist version="1.0"> / <dict> /   <key>asset-info</key> /   <dict> /     <key>file-size</key> /     <integer>5228038</integer> /     <key>flavor</key> /     <string>2:256</string> /   </dict> / </dict> / </plist>

Audio
ID                                       : 1
Format                                   : AAC
Format/Info                              : Advanced Audio Codec
Format profile                           : LC
Codec ID                                 : 40
Duration                                 : 2mn 21s
Bit rate mode                            : Variable
Bit rate                                 : 256 Kbps
Maximum bit rate                         : 316 Kbps
Channel(s)                               : 2 channels
Channel positions                        : Front: L R
Sampling rate                            : 44.1 KHz
Compression mode                         : Lossy
Stream size                              : 4.43 MiB (89%)
Language                                 : English
Tagged date                              : UTC 2010-09-03 00:58:13

General
Complete name                            : D:\Sound\Music\Soundtracks\Monsters\Randy Newman - Monsters, Inc. - Score (2001) [AAC]\21 The Ride of the Doors.m4a
Format                                   : MPEG-4
Format profile                           : Apple audio with iTunes info
Codec ID                                 : M4A
File size                                : 10.5 MiB
Duration                                 : 5mn 7s
Overall bit rate mode                    : Variable
Overall bit rate                         : 286 Kbps
Album                                    : Monsters, Inc. (Soundtrack from the Motion Picture)
Album/Performer                          : Randy Newman
Part/Position                            : 1
Part/Total                               : 1
Track name                               : The Ride of the Doors
Track name/Position                      : 21
Track name/Total                         : 25
Performer                                : Randy Newman
Genre                                    : Soundtrack
ContentType                              : Music
Recorded date                            : UTC 2001-01-01 00:00:00
Tagged date                              : UTC 2010-09-03 01:00:33
Copyright                                : ℗ 2001 Walt Disney Records / Pixar Animation Studios
Service name                             : iTunes
Cover                                    : Yes
Rating                                   : None
AppleStoreAccount                        : kgalligan67@yahoo.com
AppleStoreCatalogID                      : 161397914
AlbumTitleID                             : 200900
PlayListID                               : 161397696
GenreID                                  : 16
AppleStoreCountry                        : United States
AppleStoreAccountType                    : iTunes
PurchaseDate                             : 2010-09-02 15:33:14
Title/Sort                               : Ride of the Doors
Vendor                                   : Universal:isrc:USWD10321189
iTunMOVI                                 : <?xml version="1.0" encoding="UTF-8"?> / <!DOCTYPE plist PUBLIC "-//Apple//DTD PLIST 1.0//EN" "http://www.apple.com/DTDs/PropertyList-1.0.dtd"> / <plist version="1.0"> / <dict> /   <key>asset-info</key> /   <dict> /     <key>file-size</key> /     <integer>11010143</integer> /     <key>flavor</key> /     <string>2:256</string> /   </dict> / </dict> / </plist>

Audio
ID                                       : 1
Format                                   : AAC
Format/Info                              : Advanced Audio Codec
Format profile                           : LC
Codec ID                                 : 40
Duration                                 : 5mn 7s
Bit rate mode                            : Variable
Bit rate                                 : 271 Kbps
Nominal bit rate                         : 256 Kbps
Maximum bit rate                         : 316 Kbps
Channel(s)                               : 2 channels
Channel positions                        : Front: L R
Sampling rate                            : 44.1 KHz
Compression mode                         : Lossy
Stream size                              : 9.92 MiB (94%)
Language                                 : English
Tagged date                              : UTC 2010-09-03 01:00:33

General
Complete name                            : D:\Sound\Music\Soundtracks\Monsters\Randy Newman - Monsters, Inc. - Score (2001) [AAC]\22 Waternoose Is Waiting.m4a
Format                                   : MPEG-4
Format profile                           : Apple audio with iTunes info
Codec ID                                 : M4A
File size                                : 6.60 MiB
Duration                                 : 3mn 12s
Overall bit rate mode                    : Variable
Overall bit rate                         : 288 Kbps
Album                                    : Monsters, Inc. (Soundtrack from the Motion Picture)
Album/Performer                          : Randy Newman
Part/Position                            : 1
Part/Total                               : 1
Track name                               : Waternoose Is Waiting
Track name/Position                      : 22
Track name/Total                         : 25
Performer                                : Randy Newman
Genre                                    : Soundtrack
ContentType                              : Music
Recorded date                            : UTC 2001-01-01 00:00:00
Tagged date                              : UTC 2010-09-03 01:00:19
Copyright                                : ℗ 2001 Walt Disney Records / Pixar Animation Studios
Service name                             : iTunes
Cover                                    : Yes
Rating                                   : None
AppleStoreAccount                        : kgalligan67@yahoo.com
AppleStoreCatalogID                      : 161397923
AlbumTitleID                             : 200900
PlayListID                               : 161397696
GenreID                                  : 16
AppleStoreCountry                        : United States
AppleStoreAccountType                    : iTunes
PurchaseDate                             : 2010-09-02 15:33:14
Vendor                                   : Universal:isrc:USWD10321190
iTunMOVI                                 : <?xml version="1.0" encoding="UTF-8"?> / <!DOCTYPE plist PUBLIC "-//Apple//DTD PLIST 1.0//EN" "http://www.apple.com/DTDs/PropertyList-1.0.dtd"> / <plist version="1.0"> / <dict> /   <key>asset-info</key> /   <dict> /     <key>file-size</key> /     <integer>6924112</integer> /     <key>flavor</key> /     <string>2:256</string> /   </dict> / </dict> / </plist>

Audio
ID                                       : 1
Format                                   : AAC
Format/Info                              : Advanced Audio Codec
Format profile                           : LC
Codec ID                                 : 40
Duration                                 : 3mn 12s
Bit rate mode                            : Variable
Bit rate                                 : 256 Kbps
Maximum bit rate                         : 340 Kbps
Channel(s)                               : 2 channels
Channel positions                        : Front: L R
Sampling rate                            : 44.1 KHz
Compression mode                         : Lossy
Stream size                              : 6.04 MiB (91%)
Language                                 : English
Tagged date                              : UTC 2010-09-03 01:00:19

General
Complete name                            : D:\Sound\Music\Soundtracks\Monsters\Randy Newman - Monsters, Inc. - Score (2001) [AAC]\23 Boo's Going Home.m4a
Format                                   : MPEG-4
Format profile                           : Apple audio with iTunes info
Codec ID                                 : M4A
File size                                : 7.24 MiB
Duration                                 : 3mn 33s
Overall bit rate mode                    : Variable
Overall bit rate                         : 285 Kbps
Album                                    : Monsters, Inc. (Soundtrack from the Motion Picture)
Album/Performer                          : Randy Newman
Part/Position                            : 1
Part/Total                               : 1
Track name                               : Boo's Going Home
Track name/Position                      : 23
Track name/Total                         : 25
Performer                                : Randy Newman
Genre                                    : Soundtrack
ContentType                              : Music
Recorded date                            : UTC 2001-01-01 00:00:00
Tagged date                              : UTC 2010-09-03 01:00:44
Copyright                                : ℗ 2001 Walt Disney Records / Pixar Animation Studios
Service name                             : iTunes
Cover                                    : Yes
Rating                                   : None
AppleStoreAccount                        : kgalligan67@yahoo.com
AppleStoreCatalogID                      : 161397931
AlbumTitleID                             : 200900
PlayListID                               : 161397696
GenreID                                  : 16
AppleStoreCountry                        : United States
AppleStoreAccountType                    : iTunes
PurchaseDate                             : 2010-09-02 15:33:14
Vendor                                   : Universal:isrc:USWD10321191
iTunMOVI                                 : <?xml version="1.0" encoding="UTF-8"?> / <!DOCTYPE plist PUBLIC "-//Apple//DTD PLIST 1.0//EN" "http://www.apple.com/DTDs/PropertyList-1.0.dtd"> / <plist version="1.0"> / <dict> /   <key>asset-info</key> /   <dict> /     <key>file-size</key> /     <integer>7589512</integer> /     <key>flavor</key> /     <string>2:256</string> /   </dict> / </dict> / </plist>

Audio
ID                                       : 1
Format                                   : AAC
Format/Info                              : Advanced Audio Codec
Format profile                           : LC
Codec ID                                 : 40
Duration                                 : 3mn 33s
Bit rate mode                            : Variable
Bit rate                                 : 256 Kbps
Maximum bit rate                         : 320 Kbps
Channel(s)                               : 2 channels
Channel positions                        : Front: L R
Sampling rate                            : 44.1 KHz
Compression mode                         : Lossy
Stream size                              : 6.67 MiB (92%)
Language                                 : English
Tagged date                              : UTC 2010-09-03 01:00:44

General
Complete name                            : D:\Sound\Music\Soundtracks\Monsters\Randy Newman - Monsters, Inc. - Score (2001) [AAC]\24 Kitty.m4a
Format                                   : MPEG-4
Format profile                           : Apple audio with iTunes info
Codec ID                                 : M4A
File size                                : 3.00 MiB
Duration                                 : 1mn 19s
Overall bit rate mode                    : Variable
Overall bit rate                         : 318 Kbps
Album                                    : Monsters, Inc. (Soundtrack from the Motion Picture)
Album/Performer                          : Randy Newman
Part/Position                            : 1
Part/Total                               : 1
Track name                               : Kitty
Track name/Position                      : 24
Track name/Total                         : 25
Performer                                : Randy Newman
Genre                                    : Soundtrack
ContentType                              : Music
Recorded date                            : UTC 2001-01-01 00:00:00
Tagged date                              : UTC 2010-09-03 01:01:20
Copyright                                : ℗ 2001 Walt Disney Records / Pixar Animation Studios
Service name                             : iTunes
Cover                                    : Yes
Rating                                   : None
AppleStoreAccount                        : kgalligan67@yahoo.com
AppleStoreCatalogID                      : 161397946
AlbumTitleID                             : 200900
PlayListID                               : 161397696
GenreID                                  : 16
AppleStoreCountry                        : United States
AppleStoreAccountType                    : iTunes
PurchaseDate                             : 2010-09-02 15:33:14
Vendor                                   : Universal:isrc:USWD10321192
iTunMOVI                                 : <?xml version="1.0" encoding="UTF-8"?> / <!DOCTYPE plist PUBLIC "-//Apple//DTD PLIST 1.0//EN" "http://www.apple.com/DTDs/PropertyList-1.0.dtd"> / <plist version="1.0"> / <dict> /   <key>asset-info</key> /   <dict> /     <key>file-size</key> /     <integer>3141355</integer> /     <key>flavor</key> /     <string>2:256</string> /   </dict> / </dict> / </plist>

Audio
ID                                       : 1
Format                                   : AAC
Format/Info                              : Advanced Audio Codec
Format profile                           : LC
Codec ID                                 : 40
Duration                                 : 1mn 19s
Bit rate mode                            : Variable
Bit rate                                 : 256 Kbps
Maximum bit rate                         : 312 Kbps
Channel(s)                               : 2 channels
Channel positions                        : Front: L R
Sampling rate                            : 44.1 KHz
Compression mode                         : Lossy
Stream size                              : 2.45 MiB (82%)
Language                                 : English
Tagged date                              : UTC 2010-09-03 01:01:20

General
Complete name                            : D:\Sound\Music\Soundtracks\Monsters\Randy Newman - Monsters, Inc. - Score (2001) [AAC]\25 If I Didn't Have You.m4a
Format                                   : MPEG-4
Format profile                           : Apple audio with iTunes info
Codec ID                                 : M4A
File size                                : 7.32 MiB
Duration                                 : 3mn 38s
Overall bit rate mode                    : Variable
Overall bit rate                         : 280 Kbps
Album                                    : Monsters, Inc. (Soundtrack from the Motion Picture)
Album/Performer                          : Randy Newman
Part/Position                            : 1
Part/Total                               : 1
Track name                               : If I Didn't Have You
Track name/Position                      : 25
Track name/Total                         : 25
Performer                                : Randy Newman
Genre                                    : Soundtrack
ContentType                              : Music
Recorded date                            : UTC 2001-01-01 00:00:00
Encoded date                             : UTC 1970-11-20 17:11:36
Tagged date                              : UTC 2010-09-03 01:03:05
Copyright                                : ℗ 2001 Walt Disney Records / Pixar Animation Studios
Service name                             : iTunes
Cover                                    : Yes
Rating                                   : None
AppleStoreAccount                        : kgalligan67@yahoo.com
AppleStoreCatalogID                      : 161397957
AlbumTitleID                             : 200900
PlayListID                               : 161397696
GenreID                                  : 16
AppleStoreCountry                        : United States
AppleStoreAccountType                    : iTunes
PurchaseDate                             : 2010-09-02 15:33:14
Vendor                                   : Universal:isrc:USWD10321193
iTunMOVI                                 : <?xml version="1.0" encoding="UTF-8"?> / <!DOCTYPE plist PUBLIC "-//Apple//DTD PLIST 1.0//EN" "http://www.apple.com/DTDs/PropertyList-1.0.dtd"> / <plist version="1.0"> / <dict> /   <key>asset-info</key> /   <dict> /     <key>file-size</key> /     <integer>7673138</integer> /     <key>flavor</key> /     <string>2:256</string> /   </dict> / </dict> / </plist>

Audio
ID                                       : 1
Format                                   : AAC
Format/Info                              : Advanced Audio Codec
Format profile                           : LC
Codec ID                                 : 40
Duration                                 : 3mn 38s
Bit rate mode                            : Variable
Bit rate                                 : 256 Kbps
Maximum bit rate                         : 370 Kbps
Channel(s)                               : 2 channels
Channel positions                        : Front: L R
Sampling rate                            : 44.1 KHz
Compression mode                         : Lossy
Stream size                              : 6.75 MiB (92%)
Language                                 : English
Encoded date                             : UTC 1970-11-20 17:11:36
Tagged date                              : UTC 2010-09-03 01:03:05
Время раздачи: Сб-Вс с 09:00 до 23:30
[NNM-Club.me]_Randy Newman - Monsters, Inc. - Score (2001) [AAC].torrent
 Торрент: Платиновая раздача  Зарегистрирован
 
Скачать


Примагнититься
 Зарегистрирован:   21 Авг 2014 17:22:48
 Размер:   117 MB  (
 Рейтинг:   4,9 (Голосов: 10)
 Поблагодарили:   24
 Проверка:   Оформление проверено модератором 21 Авг 2014 18:06:48
Как cкачать  ·  Как раздать  ·  Правильно оформить  ·  Поднять ратио!  
Показать сообщения:   
Начать новую тему   Ответить на тему    Торрент-трекер NNM-Club -> Аудио и Видео -> Музыка (AAC) Часовой пояс: GMT + 3
Страница 1 из 1