Классический форум-трекер
canvas not supported
Нас вместе: 4 126 643

Последний урок / La journee de la jupe (2008) HDRip


 
 
RSS
Начать новую тему   Ответить на тему    Торрент-трекер NNM-Club -> Зарубежное кино -> Зарубежные Фильмы (HD*Rip/LQ, DVDRip, SATRip, VHSRip)
Автор Сообщение
ra3wa ®
Модератор Видео
RG Releasers
Uploader 100+
 
Стаж: 10 лет 3 мес.
Сообщений: 13569
Ratio: 10K
Раздал: 501,4 TB
Поблагодарили: 2685092
100%
Откуда: Воронеж
russia.gif
Последний урок / La journee de la jupe (2008) HDRip
Год выпуска: 2008
Производство: Франция, Бельгия
Жанр: Триллер, драма

Режиссер: Жан-Поль Лилиенфельд
Актеры: Изабель Аджани, Дени Подалидес, Янн Коллетт, Натали Бесанкон, Марк Китти, Соня Амори, Янн Эбонж, Халид Беркоз

Описание фильма:
Обычная школьная учительница находится на грани нервного срыва из-за постоянных угроз и издевательств своих учеников — детей из неблагополучных семей. Руководство бездействует, предпочитая игнорировать тревожные признаки назревающей трагедии. Во время очередного урока, в ходе потасовки с главарём школьной банды, она завладевает настоящим пистолетом. Раздаются выстрелы. Испуганные подростки оказываются в заложниках у собственной учительницы. Сложившуюся ситуацию уже никто не в состоянии контролировать...

Перевод: Профессиональный многоголосый
Субтитры: Отсутствуют



Продолжительность: 01:27:02
Качество видео: HDRip

Видеокодек: XviD
Битрейт видео: ~1999 Кбит/с
Размер кадра: 688x384
Аудиокодек: AC3 6 ch
Битрейт аудио: 384 Кбит/с

Награды и номинации

Общее
Полное имя : C:\NNM\Последний урок\Poslednij urok 2008 HDRip.avi
Формат : AVI
Формат/Информация : Audio Video Interleave
Размер файла : 1,45 Гбайт
Продолжительность : 1 ч. 27 м.
Общий поток : 2392 Кбит/сек
Программа кодирования : VirtualDubMod 1.5.10.2 (build 2540/release)
Библиотека кодирования : VirtualDubMod build 2540/release

Видео
Идентификатор : 0
Формат : MPEG-4 Visual
Профиль формата : Advanced Simple@L5
Параметр BVOP формата : 1
Параметр QPel формата : Нет
Параметр GMC формата : Без точки перехода
Параметр матрицы формата : Default (MPEG)
Идентификатор кодека : XVID
Идентификатор кодека/Подсказка : XviD
Продолжительность : 1 ч. 27 м.
Битрейт : 1999 Кбит/сек
Ширина : 688 пикселей
Высота : 384 пикселя
Соотношение сторон : 16:9
Частота кадров : 25,000 кадров/сек
Цветовое пространство : YUV
Субдискретизация насыщенности : 4:2:0
Битовая глубина : 8 бит
Тип развёртки : Прогрессивная
Метод сжатия : С потерями
Бит/(Пиксели*Кадры) : 0.303
Размер потока : 1,22 Гбайт (84%)
Библиотека кодирования : XviD 1.2.1 (UTC 2008-12-04)

Аудио
Идентификатор : 1
Формат : AC-3
Формат/Информация : Audio Coding 3
Расширение режима : CM (complete main)
Идентификатор кодека : 2000
Продолжительность : 1 ч. 27 м.
Вид битрейта : Постоянный
Битрейт : 384 Кбит/сек
Каналы : 6 каналов
Расположение каналов : Front: L C R, Side: L R, LFE
Частота : 48,0 КГц
Битовая глубина : 16 бит
Метод сжатия : С потерями
Размер потока : 239 Мбайт (16%)
Выравнивание : Разделение по промежуткам
Продолжительность промежутка : 40 мс. (1,00 видеокадр)
Время предзагрузки промежутка : 500 мс.
Скриншоты:


Время раздачи:Круглосуточно до 10 скачавших
[NNM-Club.me]_Poslednij urok 2008 HDRip.avi.torrent
 Торрент: Платиновая раздача  Зарегистрирован
 
Скачать


Примагнититься
 Зарегистрирован:   22 Авг 2014 11:48:10
 Размер:   1,45 GB  (
 Рейтинг:   4,7 (Голосов: 51)
 Поблагодарили:   297
 Проверка:   Оформление проверено модератором 22 Авг 2014 11:51:31
Как cкачать  ·  Как раздать  ·  Правильно оформить  ·  Поднять ратио!  
RastaMb
Только чтение
Стаж: 9 лет 6 мес.
Сообщений: 682
Ratio: 3,156
Раздал: 4,173 TB
100%
ussr.gif
Непростой фильм, многослойный. За жизнь человеческую, но порой такую собачью.
Сергей Ежов
Стаж: 9 лет 5 мес.
Сообщений: 896
Ratio: 54,629
Раздал: 107,6 TB
100%
Откуда: Вольск
russia.gif
эмоционально насыщеный фильм..

_________________
Наше от нас не уйдёт. То, что ушло - было не наше
Yhasic
Стаж: 8 лет 9 мес.
Сообщений: 6
Ratio: 1,999
100%
Стоит смотреть. простые люди в непростой ситуации.
Sprutw
Стаж: 8 лет 9 мес.
Сообщений: 18
Ratio: 11,907
0.73%
такие фильмы вытягивают нас в реал
трезорыч
Стаж: 8 лет 2 мес.
Сообщений: 2713
Ratio: 74,1
100%
Откуда: Из Интернета
russia.gif
Психологический фильмец вот до чего ученички могут довести ! Спасибо !
vovansrnd
Стаж: 9 лет 2 мес.
Сообщений: 990
Ratio: 50,854
Поблагодарили: 336
100%
да, хороший фильм!
leopold1950
Стаж: 6 лет 10 мес.
Сообщений: 252
Ratio: 75,161
100%
" Училка "- лучше!!!
igor50
Стаж: 12 лет 4 мес.
Сообщений: 120
Ratio: 12,227
0.28%
russia.gif
:D
Показать сообщения:   
Начать новую тему   Ответить на тему    Торрент-трекер NNM-Club -> Зарубежное кино -> Зарубежные Фильмы (HD*Rip/LQ, DVDRip, SATRip, VHSRip) Часовой пояс: GMT + 3
Страница 1 из 1