Классический форум-трекер
canvas not supported
Нас вместе: 4 078 111

Подводная Одиссея команды Жака Кусто: Мир тишины / The Silent World (1956) BDRip [720p]


 
 
RSS
Начать новую тему   Ответить на тему    Торрент-трекер NNM-Club -> Зарубежные TV-бренды -> Одиссея Жака Кусто
Автор Сообщение
tugaew ®
Стаж: 6 лет
Сообщений: 609
Ratio: 190,964
Раздал: 38,75 TB
Поблагодарили: 77753
100%
ussr.gif
Одиссея Жака Кусто: Мир тишины
Le monde du silence

«Out of an uncharted universe - comes an experience of unearthly beauty...»
Год выпуска:1956
Производство: Италия , Франция
Жанр: документальный
Продолжительность: 01:25:28
Перевод:Профессиональный (одноголосый закадровый)
Режиссер: Жак Ив Кусто, Луи Маль
Субтитры: нет
Актёры:
Фредерик Дюма / Frederick Dumas (играет самого себя), Альберт Фалько / Albert Falco (играет самого себя), Жак Ив Кусто / Jacques-Yves Cousteau (играет самого себя), Франсуа Саут / François Saout (играет самого себя), Андре Бурн-Шатель / André Bourne-Chastel (играет самого себя), Марсель Коломб / Marcel Colomb (играет самого себя), Симона Кусто / Simone Cousteau (играет саму себя), Жан Делма / Jean Delmas (играет самого себя)

Описание:
На борту научно-исследовательского судна «Калипсо» капитан Кусто и его команда бороздят бескрайние водные просторы Индийского океана, путешествуют по Средиземному и Красному морям, снимая на пленку многочисленных и разнообразных обитателей морских глубин. Создатели акваланга — уникального оборудования для подводных погружений — исследуют затонувшие корабли и рассказывают об удивительных открытиях в таинственном мире безмолвия…
Зрители: Франция 4.64 млн

Премьера (мир): 26 мая 1956
Релиз на DVD: 25 мая 2006 «Союз-Видео»
Релиз от:



Качество:BDRip 720p
Формат: MKV
Видео кодек: AVC
Аудио кодек: AC3
Видео: 956x720 (4:3), 24.000 fps, AVC, 6 730 Kbps
Аудио #1: 48 kHz, AC3, 2/0 (L,R) ch, ~224.00 kbps avg (Одногоголосый закадровый, Селена Интернешнл)
Аудио #2: 48 kHz, AC3, 2/0 (L,R) ch, ~224.00 kbps avg (Французский)
Аудио #3: 48 kHz, AC3, 2/0 (L,R) ch, ~224.00 kbps avg (Английский)
General
Complete name : Jacques.Cousteau.The.Silent.World.1956.720p.BluRay.Rus.Fre.Eng.HDCLUB.mkv
Format : Matroska
File size : 4.42 GiB
Duration : 1h 25mn
Overall bit rate : 7 403 Kbps
Movie name : Jacques Cousteau: The Silent World (1956) - Release for HDCLUB
Encoded date : UTC 2011-08-03 21:39:46
Writing application : mkvmerge v3.4.0 ('Rapunzel') built on May 15 2010 09:38:20
Writing library : libebml v0.8.0 + libmatroska v0.9.0

Video
ID : 1
Format : AVC
Format/Info : Advanced Video Codec
Format profile : High@L4.1
Format settings, CABAC : Yes
Format settings, ReFrames : 9 frames
Muxing mode : Container profile=Unknown@4.1
Codec ID : V_MPEG4/ISO/AVC
Duration : 1h 25mn
Bit rate : 6 730 Kbps
Width : 956 pixels
Height : 720 pixels
Display aspect ratio : 4:3
Frame rate : 24.000 fps
Color space : YUV
Chroma subsampling : 4:2:0
Bit depth : 8 bits
Scan type : Progressive
Bits/(Pixel*Frame) : 0.407
Stream size : 3.93 GiB (89%)
Writing library : x264 core 114 r1924 08d04a4
Encoding settings : cabac=1 / ref=9 / deblock=1:-3:-3 / analyse=0x3:0x133 / me=umh / subme=10 / psy=1 / psy_rd=1.00:0.00 / mixed_ref=1 / me_range=16 / chroma_me=1 / trellis=2 / 8x8dct=1 / cqm=0 / deadzone=21,11 / fast_pskip=1 / chroma_qp_offset=-2 / threads=6 / sliced_threads=0 / nr=0 / decimate=1 / interlaced=0 / constrained_intra=0 / bframes=9 / b_pyramid=2 / b_adapt=2 / b_bias=0 / direct=1 / weightb=1 / open_gop=0 / weightp=2 / keyint=240 / keyint_min=24 / scenecut=40 / intra_refresh=0 / rc_lookahead=40 / rc=2pass / mbtree=1 / bitrate=6730 / ratetol=1.0 / qcomp=0.60 / qpmin=0 / qpmax=69 / qpstep=4 / cplxblur=20.0 / qblur=0.5 / vbv_maxrate=50000 / vbv_bufsize=62500 / nal_hrd=none / ip_ratio=1.40 / aq=1:0.80

Audio #1
ID : 2
Format : AC-3
Format/Info : Audio Coding 3
Mode extension : CM (complete main)
Codec ID : A_AC3
Duration : 1h 25mn
Bit rate mode : Constant
Bit rate : 224 Kbps
Channel(s) : 2 channels
Channel positions : Front: L R
Sampling rate : 48.0 KHz
Bit depth : 16 bits
Stream size : 137 MiB (3%)
Title : AC3 2.0 @ 224 kbps - Одногоголосый закадровый, Селена Интернешнл
Language : Russian

Audio #2
ID : 3
Format : AC-3
Format/Info : Audio Coding 3
Mode extension : CM (complete main)
Codec ID : A_AC3
Duration : 1h 25mn
Bit rate mode : Constant
Bit rate : 224 Kbps
Channel(s) : 2 channels
Channel positions : Front: L R
Sampling rate : 48.0 KHz
Bit depth : 16 bits
Stream size : 137 MiB (3%)
Title : AC3 2.0 @ 224 kbps
Language : French

Audio #3
ID : 4
Format : AC-3
Format/Info : Audio Coding 3
Mode extension : CM (complete main)
Codec ID : A_AC3
Duration : 1h 25mn
Bit rate mode : Constant
Bit rate : 224 Kbps
Channel(s) : 2 channels
Channel positions : Front: L R
Sampling rate : 48.0 KHz
Bit depth : 16 bits
Stream size : 137 MiB (3%)
Title : AC3 2.0 @ 224 kbps
Language : English

Menu #1
00:00:00.000 : en:00:00:00.000
00:04:13.378 : en:00:04:13.378
00:05:41.049 : en:00:05:41.049
00:06:48.408 : en:00:06:48.408
00:11:14.382 : en:00:11:14.382
00:13:09.122 : en:00:13:09.122
00:16:42.835 : en:00:16:42.835
00:22:06.867 : en:00:22:06.867
00:24:00.272 : en:00:24:00.272
00:27:17.135 : en:00:27:17.135
00:29:38.402 : en:00:29:38.402
00:30:48.847 : en:00:30:48.847
00:31:43.151 : en:00:31:43.151
00:33:22.584 : en:00:33:22.584
00:35:17.615 : en:00:35:17.615
00:37:37.130 : en:00:37:37.130
00:40:13.411 : en:00:40:13.411
00:41:42.333 : en:00:41:42.333
00:43:39.784 : en:00:43:39.784
00:44:41.304 : en:00:44:41.304
00:45:17.089 : en:00:45:17.089
00:47:47.406 : en:00:47:47.406
00:48:22.858 : en:00:48:22.858
00:49:13.659 : en:00:49:13.659
00:52:04.079 : en:00:52:04.079
00:54:24.595 : en:00:54:24.595
00:56:02.067 : en:00:56:02.067
00:57:09.676 : en:00:57:09.676
00:59:01.747 : en:00:59:01.747
01:01:59.883 : en:01:01:59.883
01:04:10.722 : en:01:04:10.722
01:07:42.850 : en:01:07:42.850
01:10:19.048 : en:01:10:19.048
01:12:48.864 : en:01:12:48.864
01:14:55.157 : en:01:14:55.157
01:16:19.909 : en:01:16:19.909
01:17:25.474 : en:01:17:25.474
01:19:44.989 : en:01:19:44.989
01:22:21.478 : en:01:22:21.478
01:24:30.899 : en:01:24:30.899
01:25:51.688 : en:01:25:51.688
01:27:23.864 : en:01:27:23.864
01:29:06.800 : en:01:29:06.800
01:31:24.813 : en:01:31:24.813
01:34:40.091 : en:01:34:40.091
01:35:44.989 : en:01:35:44.989
01:36:36.958 : en:01:36:36.958
01:38:58.558 : en:01:38:58.558
01:39:41.309 : en:01:39:41.309
01:41:31.961 : en:01:41:31.961
01:42:39.153 : en:01:42:39.153
01:44:10.703 : en:01:44:10.703
01:48:23.706 : en:01:48:23.706
01:51:46.992 : en:01:51:46.992

Menu #2
00:00:00.000 : en:00:00:00.000
00:08:18.583 : en:00:08:18.583
00:13:52.792 : en:00:13:52.792
00:19:36.000 : en:00:19:36.000
00:31:38.125 : en:00:31:38.125
00:45:47.167 : en:00:45:47.167
00:54:31.000 : en:00:54:31.000
01:03:22.792 : en:01:03:22.792
01:11:36.125 : en:01:11:36.125
· Фильм снимался 2 года.

· Фильм оставался единственным документальным фильмом, выигравшим «Золотую пальмовую ветвь» до победы фильма «Фаренгейт 9/11» в 2004 году.

Скриншоты:





Подводная Одиссея команды Жака Кусто: Мир тишины / Le monde du silence на NNM-club


Время раздачи: до 10 сидов
[NNM-Club.me]_Jacques.Cousteau.The.Silent.World.1956.720p.BluRay.Rus.Fre.Eng.HDCLUB.mkv.torrent
 Торрент: Платиновая раздача  Зарегистрирован
 
Скачать


Примагнититься
 Зарегистрирован:   25 Авг 2014 15:12:50
 Размер:   4,42 GB  (
 Рейтинг:   4,9 (Голосов: 45)
 Поблагодарили:   104
 Проверка:   Оформление проверено модератором 27 Авг 2014 09:32:51
Как cкачать  ·  Как раздать  ·  Правильно оформить  ·  Поднять ратио!  
Показать сообщения:   
Начать новую тему   Ответить на тему    Торрент-трекер NNM-Club -> Зарубежные TV-бренды -> Одиссея Жака Кусто Часовой пояс: GMT + 3
Страница 1 из 1