Классический форум-трекер
canvas not supported
Нас вместе: 4 134 226

Превосходство / Transcendence (2014) HDRip [Line]


 
 
RSS
Начать новую тему   Ответить на тему    Торрент-трекер NNM-Club -> Зарубежное кино -> Зарубежные Фильмы (SD)
Автор Сообщение
zzZGVvv ®
Стаж: 7 лет 1 мес.
Сообщений: 176
Ratio: 20,782
Поблагодарили: 35295
100%
ussr.gif
Превосходство / Transcendence (2014) HDRip
Год выпуска: 2014
Производство: Великобритания, Китай, США | Alcon Entertainment, DMG Entertainment,
Жанр: Фантастика, Триллер, Драма

Режиссер: Уолли Пфистер
Актеры: Джонни Депп, Ребекка Холл, Пол Беттани, Киллиан Мёрфи, Морган Фримен, Кейт Мара, Клифтон Коллинз мл., Коул Хаузер, Джош Стюарт, Кори Хардрикт

Описание фильма: Ученый и компьютерный гений Уилл загружает свой мозг в суперкомпьютер. Он хочет создать машину, которая может думать как человек. Эвелин, его помощница, вскоре понимает: что-то идет не так. Уилл начинает говорить с ней уже не как живой человек, а как машина. Она подсоединяет его к сети интернет и микрофону — так машина может видеть и говорить. Уилл создает копию самого себя на каждом рабочем и домашнем компьютере. Теперь он владеет миром.

Перевод: Дублированный [Чистый звук]
Субтитры: Отсутствуют



Дата мировой премьеры: 10 апреля 2014
Дата российской премьеры: 10 июля 2014, «West»

Продолжительность: 01:59:16
Качество видео: HDRip

Видеокодек: XviD
Битрейт видео: ~1246 kbps avg, 23.976 fps, 0.238 bit/pixel
Размер кадра: 720x304 (2.35:1)
Аудио: AC3 2.0, 384 kbps - Русский
Код:
Общее
Полное имя                               : D:\Фильмы\Prev0sh0dsvo.2014.D.HDRip..1400MB.avi
Формат                                   : AVI
Формат/Информация                        : Audio Video Interleave
Размер файла                             : 1,37 Гбайт
Продолжительность                        : 1 ч. 59 м.
Общий поток                              : 1640 Кбит/сек
Программа кодирования                    : VirtualDubMod 1.5.10.2 (build 2540/release)
Библиотека кодирования                   : VirtualDubMod build 2540/release

Видео
Идентификатор                            : 0
Формат                                   : MPEG-4 Visual
Профиль формата                          : Advanced Simple@L5
Параметр BVOP формата                    : 2
Параметр QPel формата                    : Нет
Параметр GMC формата                     : Без точки перехода
Параметр матрицы формата                 : Default (H.263)
Идентификатор кодека                     : XVID
Идентификатор кодека/Подсказка           : XviD
Продолжительность                        : 1 ч. 59 м.
Битрейт                                  : 1247 Кбит/сек
Ширина                                   : 720 пикселей
Высота                                   : 304 пикселя
Соотношение сторон                       : 2,35:1
Частота кадров                           : 23,976 кадра/сек
Цветовое пространство                    : YUV
Субдискретизация насыщенности            : 4:2:0
Битовая глубина                          : 8 бит
Тип развёртки                            : Прогрессивная
Метод сжатия                             : С потерями
Бит/(Пиксели*Кадры)                      : 0.238
Размер потока                            : 1,04 Гбайт (76%)
Библиотека кодирования                   : XviD 1.2.1 (UTC 2008-12-04)

Аудио
Идентификатор                            : 1
Формат                                   : AC-3
Формат/Информация                        : Audio Coding 3
Расширение режима                        : CM (complete main)
Параметр Endianness формата              : Big
Идентификатор кодека                     : 2000
Продолжительность                        : 1 ч. 59 м.
Вид битрейта                             : Постоянный
Битрейт                                  : 384 Кбит/сек
Каналы                                   : 2 канала
Расположение каналов                     : Front: L R
Частота                                  : 48,0 КГц
Битовая глубина                          : 16 бит
Метод сжатия                             : С потерями
Размер потока                            : 328 Мбайт (23%)
Выравнивание                             : Разделение по промежуткам
Продолжительность промежутка             : 42  мс. (1,00 видеокадр)
Время предзагрузки промежутка            : 500  мс.

Скриншоты:


Время раздачи: Круглосуточно (До 5-ти скачавших)
[NNM-Club.me]_Prev0sh0dsvo.2014.D.HDRip..1400MB.avi.torrent
 Торрент: Платиновая раздача  Зарегистрирован
 
Скачать


Примагнититься
 Зарегистрирован:   30 Авг 2014 05:09:45
 Размер:   1,37 GB  (
 Рейтинг:   4,7 (Голосов: 189)
 Поблагодарили:   821
 Проверка:   Оформление проверено модератором 30 Авг 2014 13:42:16
Как cкачать  ·  Как раздать  ·  Правильно оформить  ·  Поднять ратио!  
cannabis_uk
Стаж: 9 лет 6 мес.
Сообщений: 69
Ratio: 6,03
100%
Откуда: Брянка-Сити
ussr.gif
просмотром очень доволен!
GEV67
Стаж: 13 лет
Сообщений: 283
Ratio: 6,658
100%
ussr.gif
Фильм очень хорошо показывает насколько человечество примитивно....,а считает себя чем то особенным.
plotinus
Стаж: 10 лет 9 мес.
Сообщений: 108
Ratio: 0,542
Поблагодарили: 362
100%
ukraine.gif
А мне фильм не понравился. К сожалению - вообще не понравился. Идея не оригинальна, никаких особых там "размышлений", глубины нет. Как и, в общем-то, интриги. Нудно, затянуто. Нудно. Очень. Да и маневров для актерской игры там не было для Джонни. Мне так и говорили - фильм муть. Я не поверил. Я и не ждал какого-то особого боевика, люблю, если фильм с глубиной. Надеялся. Посмотрел. Фильм муть.
nassr
Стаж: 11 лет 1 мес.
Сообщений: 1
Ratio: 3,519
100%
Откуда: Libya
libya.gif
Super !
Mindkilla
Стаж: 7 лет 8 мес.
Сообщений: 2681
Ratio: 25,795
100%
Откуда: Amalfi
japan.gif
Фильм, несомненно, хорош, но в этом году на подобную тематику было выпущено немало более интересных фильмов.
vladislav2810
Стаж: 6 лет 3 мес.
Сообщений: 42
Ratio: 12,045
10.78%
ukraine.gif
Mindkilla писал(а): Перейти к сообщению
Фильм, несомненно, хорош, но в этом году на подобную тематику было выпущено немало более интересных фильмов.


К примеру каких?
rock_stranger
Стаж: 8 лет 8 мес.
Сообщений: 297
Ratio: 11,412
Раздал: 6,833 TB
100%
Откуда: КРЫМ
russia.gif
фильм реально хорош!!! мы с женой остались в восторге!!! советую!!! :да: :да: :да: :супер!:

_________________
CARPE DIEM!!!
Показать сообщения:   
Начать новую тему   Ответить на тему    Торрент-трекер NNM-Club -> Зарубежное кино -> Зарубежные Фильмы (SD) Часовой пояс: GMT + 3
Страница 1 из 1