Классический форум-трекер
canvas not supported
Нас вместе: 4 093 694

Заводила / Kingpin (1996) HDTVRip [H.264]


 
 
RSS
Начать новую тему   Ответить на тему    Торрент-трекер NNM-Club -> Зарубежное кино -> Зарубежные Фильмы (HD*Rip/LQ, DVDRip, SATRip, VHSRip)
Автор Сообщение
охрана ®
RG Releasers
 
Стаж: 9 лет
Сообщений: 3620
Ratio: 3993,35
Поблагодарили: 502121
100%
Откуда: СССР
ussr.gif
Заводила / Kingpin (1996) HDTVRip [H.264]
«A movie with a lot of balls»

Год выпуска: 1996
Жанр: Комедия
Производство: США / Motion Picture Corporation of America (MPCA), Rysher Entertainment

Описание фильма:
Он не пьет, не курит, не водит машину, не общается с женщинами и в жизни не заработал ни копейки. Но если он не раздобудет полмиллиона долларов, у его семьи отнимут землю. Приходится принять предложение подозрительного типа поехать на чемпионат мира по боулингу…

Режиссер: Бобби Фаррелли, Питер Фаррелли
Сценарий: Бэрри Фэнаро, Морт Нэтан
Продюсер: Брэд Кревой, Брэдли Томас, Джон Бертолли
Актеры: Вуди Харрельсон, Рэнди Куэйд, Ванесса Энджел, Билл Мюррей, Крис Эллиот, Уильям Джордан, Ричард Тайсон, Лин Шэй, Зен Геснер, Пруденс Райт Холмс

Продолжительность: 01:57:08
Качество видео: HDTVRip
Перевод: Многоголосый закадровый, авторский



Дата мировой премьеры: 4 июля 1996

Видеокодек: MPEG-4 AVC/H.264
Битрейт видео: ~1945 Кбит/сек
Размер кадра: 1024x440
Аудио 1: Русский, AC3 2.0, 192 Кбит/сек, 48 kHz (Многоголосый закадровый, СТС)
Аудио 2: Русский, AC3 2.0, 192 Кбит/сек, 48 kHz (Авторский одноголосый, П.Санаев)
Боулинг как повод
Наряду с «Большим Лебовски» (в котором Джефф Бриджес так ни разу не бросил шар в кадре) эта комедия является наиболее ярким фильмом на тему боулинга. Ранние Фаррелли создали на редкость отвязное кино, затронув довольно щекотливые темы, что не помешало обыграть их с достаточно адекватным юмором.
Актерский ансамбль из Вуди Харрельсона, Рэнди Куэйда и неподражаемого Билла Мюррея конечно сыграл этому фильму только на пользу. Я бы назвал этот фильм лучшим из всего того, что было снято Фаррелли.
10 из 10
Общее
Уникальный идентификатор : 225610239641510248336627669430391948434 (0xA9BAF39DEE83D067836F43FE3F224492)
Полное имя : F:\Downloads\Заводила.mkv
Формат : Matroska
Версия формата : Version 4 / Version 2
Размер файла : 1,86 Гбайт
Продолжительность : 1 ч. 57 м.
Общий поток : 2267 Кбит/сек
Дата кодирования : UTC 2014-09-12 03:51:13
Программа кодирования : mkvmerge v7.0.0 ('Where We Going') 32bit built on Jun 9 2014 15:08:34
Библиотека кодирования : libebml v1.3.0 + libmatroska v1.4.1
DURATION : 01:57:08.896000000
NUMBER_OF_FRAMES : 219653
NUMBER_OF_BYTES : 168693504
_STATISTICS_WRITING_APP : mkvmerge v7.0.0 ('Where We Going') 32bit built on Jun 9 2014 15:08:34
_STATISTICS_WRITING_DATE_UTC : 2014-09-12 03:51:13
_STATISTICS_TAGS : BPS DURATION NUMBER_OF_FRAMES NUMBER_OF_BYTES

Видео
Идентификатор : 1
Формат : AVC
Формат/Информация : Advanced Video Codec
Профиль формата : High@L4.1
Параметр CABAC формата : Да
Параметр ReFrames формата : 8 кадров
Идентификатор кодека : V_MPEG4/ISO/AVC
Продолжительность : 1 ч. 57 м.
Битрейт : 1838 Кбит/сек
Номинальный битрейт : 1945 Кбит/сек
Ширина : 1024 пикселя
Высота : 440 пикселей
Соотношение сторон : 2,35:1
Режим частоты кадров : Постоянный
Частота кадров : 23,976 кадра/сек
Цветовое пространство : YUV
Субдискретизация насыщенности : 4:2:0
Битовая глубина : 8 бит
Тип развёртки : Прогрессивная
Бит/(Пиксели*Кадры) : 0.170
Размер потока : 1,50 Гбайт (81%)
Заголовок : Kingpin
Библиотека кодирования : x264 core 125 r2208 d9d2288
Настройки программы : cabac=1 / ref=8 / deblock=1:-1:-1 / analyse=0x3:0x133 / me=umh / subme=9 / psy=1 / psy_rd=1.00:0.10 / mixed_ref=1 / me_range=32 / chroma_me=1 / trellis=2 / 8x8dct=1 / cqm=0 / deadzone=21,11 / fast_pskip=0 / chroma_qp_offset=-3 / threads=6 / lookahead_threads=1 / sliced_threads=0 / nr=0 / decimate=1 / interlaced=0 / bluray_compat=0 / constrained_intra=0 / bframes=3 / b_pyramid=2 / b_adapt=2 / b_bias=0 / direct=3 / weightb=1 / open_gop=0 / weightp=2 / keyint=250 / keyint_min=25 / scenecut=40 / intra_refresh=0 / rc_lookahead=60 / rc=2pass / mbtree=1 / bitrate=1945 / ratetol=1.0 / qcomp=0.60 / qpmin=0 / qpmax=69 / qpstep=4 / cplxblur=20.0 / qblur=0.5 / ip_ratio=1.40 / aq=1:1.00
Язык : English
Default : Да
Forced : Нет

Аудио #1
Идентификатор : 2
Формат : AC-3
Формат/Информация : Audio Coding 3
Расширение режима : CM (complete main)
Параметр Endianness формата : Big
Идентификатор кодека : A_AC3
Продолжительность : 1 ч. 57 м.
Вид битрейта : Постоянный
Битрейт : 192 Кбит/сек
Каналы : 2 канала
Расположение каналов : Front: L R
Частота : 48,0 КГц
Битовая глубина : 16 бит
Метод сжатия : С потерями
Размер потока : 161 Мбайт (8%)
Заголовок : Профессиональный многоголосый, СТС
Язык : Russian
Default : Да
Forced : Нет

Аудио #2
Идентификатор : 3
Формат : AC-3
Формат/Информация : Audio Coding 3
Расширение режима : CM (complete main)
Параметр Endianness формата : Big
Идентификатор кодека : A_AC3
Продолжительность : 1 ч. 57 м.
Вид битрейта : Постоянный
Битрейт : 192 Кбит/сек
Каналы : 2 канала
Расположение каналов : Front: L R
Частота : 48,0 КГц
Битовая глубина : 16 бит
Метод сжатия : С потерями
Размер потока : 161 Мбайт (8%)
Заголовок : Авторский одноголосый, П.Санаев
Язык : Russian
Default : Нет
Forced : Нет
Скриншоты:



Время раздачи: с 13:00 до 01:00 по Москве (выходные круглосуточно), до 10 скачавших
[NNM-Club.me]_Zavodila.mkv.torrent
 Торрент: Платиновая раздача  Зарегистрирован
 
Скачать


Примагнититься
 Зарегистрирован:   12 Сен 2014 14:15:26
 Размер:   1,86 GB  (
 Рейтинг:   4,4 (Голосов: 32)
 Поблагодарили:   131
 Проверка:   Оформление проверено модератором 13 Сен 2014 07:12:24
Как cкачать  ·  Как раздать  ·  Правильно оформить  ·  Поднять ратио!  
Gataka
Стаж: 10 лет 10 мес.
Сообщений: 189
Ratio: 11,522
Раздал: 16,87 TB
Поблагодарили: 136
100%
russia.gif
Недавно играл в боулинг, вспоминал это отличное кино) спасибо
Дуниско
Стаж: 9 лет 7 мес.
Сообщений: 21
Ratio: 4,441
Поблагодарили: 153
100%
russia.gif
Клевый филмак, решил пересмотреть, спасиб за раздачу!!!
Хаттори Ханзо
Стаж: 5 лет 6 мес.
Сообщений: 1
Ratio: 0,028
57.89%
uzbekistan.gif
Фильмы, которые можно пересматривать ещё и ещё раз...
Показать сообщения:   
Начать новую тему   Ответить на тему    Торрент-трекер NNM-Club -> Зарубежное кино -> Зарубежные Фильмы (HD*Rip/LQ, DVDRip, SATRip, VHSRip) Часовой пояс: GMT + 3
Страница 1 из 1