Классический форум-трекер
canvas not supported
Нас вместе: 4 093 748

Jimi Hendrix - The Best Of (2000) 3CD [FLAC|Lossless]<Hard Rock, Blues Rock>


 
 
RSS
Начать новую тему   Ответить на тему    Торрент-трекер NNM-Club -> Rock, Alternative, Punk, Metal -> Hard Rock (Lossless)
Автор Сообщение
Doshik ®
Стаж: 9 лет 4 мес.
Сообщений: 1688
Ratio: 43,55
Поблагодарили: 92670
100%
barbados.gif
Jimi Hendrix - The Best Of (2000)
Год: 2000
Жанр: Hard Rock, Blues Rock
Продолжительность: 02:28:15
Лейбл: BIEM/STERMA
Каталог: RB0X3270ABC

Кодек: FLAC (image+.cue + log)
Битрейт: Lossless
Треклист:
01. Little Wing (3:09)
02. Voodoo Chile (Slight Return) (7:18)
03. Purple Haze (3:07)
04. The Sunshine Of Your Love (6:39)
05. Bleeding Heart (Feat. Jim Morrison) (10:44)
06. Woke Up This Morning And Found Myself Dead (8:02)
07. Tomorrow Never Knows (Feat. Jim Morrison) (1:34)
08. Fire (3:38)
09. Wild Thing (1:20)
10. Morrison's Lament (Feat. Jim Morrison) (3:30)
Продолжительность – 00:49:01
Код:

Exact Audio Copy V0.99 prebeta 5 from 4. May 2009

Отчёт EAC об извлечении, выполненном 4. сентября 2009, 15:01

Jimi Hendrix / 19 Great Performances (Disc 1)

Дисковод: TSSTcorpCDDVDW TS-L632N   Adapter: 2  ID: 0

Режим чтения                 : Достоверность
Использование точного потока : Да
Отключение кэша аудио        : Да
Использование указателей C2  : Нет

Коррекция смещения при чтении                     : 6
Способность читать области Lead-in и Lead-out     : Нет
Заполнение пропущенных сэмплов тишиной            : Да
Удаление блоков с тишиной в начале и конце        : Нет
При вычислениях CRC использовались нулевые сэмплы : Да
Интерфейс                                         : Установленный внешний ASPI-интерфейс

Выходной формат : Внутренние WAV-операции
Формат сэмплов  : 44.100 Гц; 16 бит; стерео

TOC извлечённого CD

     Трек |   Старт  | Длительность | Начальный сектор | Конечный сектор
    ---------------------------------------------------------------------
       1  |  0:00.33 |    3:08.70   |          33      |      14202
       2  |  3:09.28 |    7:18.15   |       14203      |      47067
       3  | 10:27.43 |    3:06.72   |       47068      |      61089
       4  | 13:34.40 |    6:39.23   |       61090      |      91037
       5  | 20:13.63 |   10:43.45   |       91038      |     139307
       6  | 30:57.33 |    8:02.32   |      139308      |     175489
       7  | 38:59.65 |    1:34.08   |      175490      |     182547
       8  | 40:33.73 |    3:37.55   |      182548      |     198877
       9  | 44:11.53 |    1:19.67   |      198878      |     204869
      10  | 45:31.45 |    3:30.00   |      204870      |     220619

Характеристики диапазона извлечения и сообщения об ошибках

Выбранный диапазон

     Имя файла C:\Users\Public\Music\Jimi Hendrix - The Best Of (3CD)\Jimi Hendrix - 19 Great Performances (Disc 1).wav

     Пиковый уровень 98.9 %
     Качество диапазона 100.0 %
     CRC копии CEF0AD9D
     Копирование... OK

Ошибок не произошло

Конец отчёта
Код:

-----------------------

DON'T MODIFY THIS FILE

-----------------------

PERFORMER: auCDtect Task Manager, ver. 1.5.1RC6 build 1.5.1.7
Copyright (c) 2008-2010 y-soft. All rights reserved
http://y-soft.org

ANALYZER: auCDtect: CD records authenticity detector, version 0.8.2
Copyright (c) 2004 Oleg Berngardt. All rights reserved.
Copyright (c) 2004 Alexander Djourik. All rights reserved.

FILE: Jimi Hendrix - 19 Great Performances (Disc 1).flac
  Size: 260754781 Hash: 51DDD839704F58ED29A1118F1B53431D Accuracy: -m8
  Conclusion: CDDA 100%
  Signature: 9F85FF81DB4D3078164AC36B98BCCE339059A255

Треклист:
01. Red House (10:34)
02. Good Times (4:04)
03. Voices (5:12)
04. Voice In The Wind (2:47)
05. Two And One Goes (2:29)
06. Let Me Go (2:39)
07. Uranus Rock (6:37)
08. Outside Woman Blues (6:46)
09. Room Full Of Mirrors (Extended Version) (8:08)
Продолжительность – 00:49:15
Код:

Exact Audio Copy V0.99 prebeta 5 from 4. May 2009

Отчёт EAC об извлечении, выполненном 4. сентября 2009, 15:23

Jimi Hendrix / 19 Great Performances (Disc 2)

Дисковод: TSSTcorpCDDVDW TS-L632N   Adapter: 2  ID: 0

Режим чтения                 : Достоверность
Использование точного потока : Да
Отключение кэша аудио        : Да
Использование указателей C2  : Нет

Коррекция смещения при чтении                     : 6
Способность читать области Lead-in и Lead-out     : Нет
Заполнение пропущенных сэмплов тишиной            : Да
Удаление блоков с тишиной в начале и конце        : Нет
При вычислениях CRC использовались нулевые сэмплы : Да
Интерфейс                                         : Установленный внешний ASPI-интерфейс

Выходной формат : Внутренние WAV-операции
Формат сэмплов  : 44.100 Гц; 16 бит; стерео

TOC извлечённого CD

     Трек |   Старт  | Длительность | Начальный сектор | Конечный сектор
    ---------------------------------------------------------------------
       1  |  0:00.33 |   10:33.47   |          33      |      47554
       2  | 10:34.05 |    4:04.00   |       47555      |      65854
       3  | 14:38.05 |    5:11.55   |       65855      |      89234
       4  | 19:49.60 |    2:46.38   |       89235      |     101722
       5  | 22:36.23 |    2:29.35   |      101723      |     112932
       6  | 25:05.58 |    2:39.32   |      112933      |     124889
       7  | 27:45.15 |    6:36.48   |      124890      |     154637
       8  | 34:21.63 |    6:45.67   |      154638      |     185079
       9  | 41:07.55 |    8:07.40   |      185080      |     221644

Характеристики диапазона извлечения и сообщения об ошибках

Выбранный диапазон

     Имя файла C:\Users\Public\Music\Jimi Hendrix - The Best Of (3CD)\Jimi Hendrix - 19 Great Performances (Disc 2).wav

     Пиковый уровень 90.2 %
     Качество диапазона 100.0 %
     CRC копии E41339B3
     Копирование... OK

Ошибок не произошло

Конец отчёта
Код:

-----------------------

DON'T MODIFY THIS FILE

-----------------------

PERFORMER: auCDtect Task Manager, ver. 1.5.1RC6 build 1.5.1.7
Copyright (c) 2008-2010 y-soft. All rights reserved
http://y-soft.org

ANALYZER: auCDtect: CD records authenticity detector, version 0.8.2
Copyright (c) 2004 Oleg Berngardt. All rights reserved.
Copyright (c) 2004 Alexander Djourik. All rights reserved.

FILE: Jimi Hendrix - 19 Great Performances (Disc 2).flac
  Size: 269068432 Hash: 522C4CE5858B830AF1CE21660028F0E3 Accuracy: -m8
  Conclusion: CDDA 100%
  Signature: 53B2C905908BF1567A5909A588E14644A6263CBE
Треклист:
01. Blues Blues (6:08)
02. Free Spirit (5:40)
03. Psycho (2:40)
04. Wipe the Sweat (3:35)
05. Groove Maker (2:22)
06. Hot Trigger (3:58)
07. Night Life (6:11)
08. You Got It (2:44)
09. Suspicious (3:54)
10. Goodbye Bessie Mae (2:29)
11. She's a Fox (2:45)
12. Freedom and You (2:21)
13. She's So Fine (2:32)
14. Sweet Thing (2:39)
Продолжительность – 00:49:59
Код:

Exact Audio Copy V0.99 prebeta 5 from 4. May 2009

Отчёт EAC об извлечении, выполненном 4. сентября 2009, 15:51

Jimi Hendrix / The best of (Disc 3)

Дисковод: TSSTcorpCDDVDW TS-L632N   Adapter: 2  ID: 0

Режим чтения                 : Достоверность
Использование точного потока : Да
Отключение кэша аудио        : Да
Использование указателей C2  : Нет

Коррекция смещения при чтении                     : 6
Способность читать области Lead-in и Lead-out     : Нет
Заполнение пропущенных сэмплов тишиной            : Да
Удаление блоков с тишиной в начале и конце        : Нет
При вычислениях CRC использовались нулевые сэмплы : Да
Интерфейс                                         : Установленный внешний ASPI-интерфейс

Выходной формат : Внутренние WAV-операции
Формат сэмплов  : 44.100 Гц; 16 бит; стерео

TOC извлечённого CD

     Трек |   Старт  | Длительность | Начальный сектор | Конечный сектор
    ---------------------------------------------------------------------
       1  |  0:00.00 |    6:07.67   |           0      |      27591
       2  |  6:07.67 |    5:40.20   |       27592      |      53111
       3  | 11:48.12 |    2:39.49   |       53112      |      65085
       4  | 14:27.61 |    3:35.19   |       65086      |      81229
       5  | 18:03.05 |    2:21.49   |       81230      |      91853
       6  | 20:24.54 |    3:58.30   |       91854      |     109733
       7  | 24:23.09 |    6:11.29   |      109734      |     137587
       8  | 30:34.38 |    2:44.15   |      137588      |     149902
       9  | 33:18.53 |    3:54.24   |      149903      |     167476
      10  | 37:13.02 |    2:29.20   |      167477      |     178671
      11  | 39:42.22 |    2:45.32   |      178672      |     191078
      12  | 42:27.54 |    2:21.17   |      191079      |     201670
      13  | 44:48.71 |    2:31.57   |      201671      |     213052
      14  | 47:20.53 |    2:38.42   |      213053      |     224944

Характеристики диапазона извлечения и сообщения об ошибках

Выбранный диапазон

     Имя файла C:\Users\Public\Music\Jimi Hendrix - The Best Of (3CD)\Jimi Hendrix - The best of (Disc 3).wav

     Пиковый уровень 100.0 %
     Качество диапазона 100.0 %
     CRC копии BDCD21F0
     Копирование... OK

Ошибок не произошло

Конец отчёта
Код:

-----------------------

DON'T MODIFY THIS FILE

-----------------------

PERFORMER: auCDtect Task Manager, ver. 1.5.1RC6 build 1.5.1.7
Copyright (c) 2008-2010 y-soft. All rights reserved
http://y-soft.org

ANALYZER: auCDtect: CD records authenticity detector, version 0.8.2
Copyright (c) 2004 Oleg Berngardt. All rights reserved.
Copyright (c) 2004 Alexander Djourik. All rights reserved.

FILE: Jimi Hendrix - The best of (Disc 3).flac
  Size: 273899148 Hash: 380B0D85C0A7F64B050905BE71401DB4 Accuracy: -m8
  Conclusion: CDDA 100%
  Signature: ADD3F9AF72AC75EFDA2360BD65FF52C3326FDA55

Время раздачи: 24/7 (круглосуточно


Поглощение/вытеснение
Только с согласия релизера

Pashketan
[NNM-Club.me]_Jimi Hendrix The Best Of.torrent
 Торрент: Платиновая раздача  Зарегистрирован
 
Скачать


Примагнититься
 Зарегистрирован:   17 Сен 2014 11:50:00
 Размер:   776 MB  (
 Рейтинг:   4,9 (Голосов: 47)
 Поблагодарили:   163
 Проверка:   Оформление проверено модератором 17 Сен 2014 17:13:51
Как cкачать  ·  Как раздать  ·  Правильно оформить  ·  Поднять ратио!  
Показать сообщения:   
Начать новую тему   Ответить на тему    Торрент-трекер NNM-Club -> Rock, Alternative, Punk, Metal -> Hard Rock (Lossless) Часовой пояс: GMT + 3
Страница 1 из 1