Классический форум-трекер
canvas not supported
Нас вместе: 4 104 733

Ментовские войны-8 (2014) SATRip (Серии 1-16 из 16)


Страницы:   Пред.  1, 2 
 
RSS
Начать новую тему   Ответить на тему    Торрент-трекер NNM-Club -> Отечественные сериалы -> Ментовские войны
Автор Сообщение
vova-salt ®
RG Книги
 
Стаж: 9 лет
Сообщений: 2915
Ratio: 12,039
Раздал: 1,278 TB
Поблагодарили: 612492
100%
Откуда: 43 регион
russia.gif
Ментовские войны-8 (2014) SATRip
Год выпуска: 2014
Производство: ООО «Студия Панорама»
Жанр: Боевик, Детектив



Режиссер: Денис Скворцов
Актеры: Александр Устюгов, Дмитрий Быковский-Ромашов, Всеволод Цурило, Мария Иванова (IV), Анатолий Узденский, Сергей Лысов, Ольга Иванова (IV), Александр Лисицын, Руслан Ибрагимов, Андрей Родимов, Владимир Сапрыкин, Дарья Юргенс, Александр Ленин, Марина Денисова, Антон Мошечков, Олег Гаянов, Андрей Погребинский, Диана Дезмари, Роман Жилкин, Владимир Кебин, Елизавета Ковалева, Владимир Студеновский

Описание фильма:
Перевод в районный отдел лишает Романа Шилова многих привычных рычагов контроля над криминальной обстановкой в городе, но также развязывает ему руки. С помощью своих верных друзей - Павла Арнаутова и Евгения Иванова по прозвищу "Джексон" - он продолжает внимательно следить за обстановкой в ГУВД, и случай напомнить о себе предоставляется Роману очень скоро. Расследование махинаций начальника УБЭП Каспаряна приводит Романа к раскрытию целой системы торговли должностями и вымогательства под прикрытием высоких званий. Дубровский, не растерявший и толики своего былого влияния, продолжает насаждать коррупцию в Петербурге, но и Роман не думает ему уступать. Тем более, что в его руках наконец-то появляются сильные козыри против двух своих старых врагов - Ковалёва и Демидова...

Продолжительность: 00:44:00
Качество видео: SATRip

Видеокодек: Xvid
Битрейт видео: ~1742 Кбит/сек
Размер кадра: 704х448
Аудиокодек: MP3
Битрейт аудио: 48 kHz, MPEG Layer 3, 2 ch, ~128.00 kbps avg
Общее
Полное имя : E:\Сериалы\Ментовские войны Сезон 8\01 серия.avi
Формат : AVI
Формат/Информация : Audio Video Interleave
Размер файла : 597 Мбайт
Продолжительность : 44 м.
Общий поток : 1882 Кбит/сек
Программа кодирования : Lavf51.12.1

Видео
Идентификатор : 0
Формат : MPEG-4 Visual
Профиль формата : Simple@L1
Параметр BVOP формата : Нет
Параметр QPel формата : Нет
Параметр GMC формата : Без точки перехода
Параметр матрицы формата : Default (H.263)
Идентификатор кодека : DX50
Идентификатор кодека/Подсказка : DivX 5
Продолжительность : 44 м.
Битрейт : 1742 Кбит/сек
Ширина : 704 пикселя
Высота : 448 пикселей
Соотношение сторон : 16:10
Частота кадров : 25,000 кадров/сек
Цветовое пространство : YUV
Субдискретизация насыщенности : 4:2:0
Битовая глубина : 8 бит
Тип развёртки : Прогрессивная
Метод сжатия : С потерями
Бит/(Пиксели*Кадры) : 0.221
Размер потока : 553 Мбайт (93%)
Библиотека кодирования : Lavc51.40.4

Аудио
Идентификатор : 1
Формат : MPEG Audio
Версия формата : Version 1
Профиль формата : Layer 3
Режим : Joint stereo
Идентификатор кодека : 55
Идентификатор кодека/Подсказка : MP3
Продолжительность : 44 м.
Вид битрейта : Постоянный
Битрейт : 128 Кбит/сек
Каналы : 2 канала
Частота : 48,0 КГц
Метод сжатия : С потерями
Размер потока : 40,6 Мбайт (7%)
Выравнивание : Соединение по промежуткам
Продолжительность промежутка : 24 мс. (0,60 видеокадр)
Время предзагрузки промежутка : 24 мс.
Скриншоты:


«Ментовские войны» на NNM-Club
Время раздачи: По возможности. До первых 5 сидов.
[NNM-Club.me]_Mentovskie voynyi Sezon 8.torrent
 Торрент: Платиновая раздача  Зарегистрирован
 
Скачать


Примагнититься
 Зарегистрирован:   29 Сен 2014 23:59:55
 Размер:   9,2 GB  (
 Рейтинг:   4,6 (Голосов: 242)
 Поблагодарили:   904
 Проверка:   Оформление проверено модератором 30 Сен 2014 03:18:10
Как cкачать  ·  Как раздать  ·  Правильно оформить  ·  Поднять ратио!  
Satory101
Стаж: 9 лет 5 мес.
Сообщений: 8
Ratio: 3,53
100%
russia.gif
большое спасибо раздающему :выпивают:
tishin
Покровитель талантов
 
Стаж: 9 лет 2 мес.
Сообщений: 106
Ratio: 132,408
100%
vova-salt
удачи вам во всех ваших начинаниях
Danil21021
Стаж: 6 лет 7 мес.
Сообщений: 78
Ratio: 35,274
Раздал: 1,962 TB
100%
Откуда: Екатеринбург
russia.gif
Отличный фильм! Спасибо!
lancet567
Стаж: 9 лет 8 мес.
Сообщений: 158
Ratio: 214,377
100%
ussr.gif
vova-salt - спасибо
tishin
Покровитель талантов
 
Стаж: 9 лет 2 мес.
Сообщений: 106
Ratio: 132,408
100%
спасибо. забираю- раздам
Temper
Стаж: 9 лет
Сообщений: 459
Ratio: 15,484
Поблагодарили: 2939
100%
Благодарю за оперативность =)
dok-14
Стаж: 10 лет 3 мес.
Сообщений: 7
Ratio: 1,515
100%
Откуда: Беларусь, Минск
ussr.gif
Шпок писал(а): Перейти к сообщению
Вот спасибо, так спасибо, от души! Лучшего сериала про ментовскую систему в России ещё не было и наверное уже никогда не будет.

Совершенно согласен! Автору раздачи - респект! :респект:
shustrii
Стаж: 8 лет 3 мес.
Сообщений: 8
Ratio: 38,295
100%
ukraine.gif
:респект:
Kreator1974
Стаж: 7 лет 4 мес.
Сообщений: 650
Ratio: 7,416
100%
ukraine.gif
Смотреть можно.
AsB1970
Стаж: 5 лет 6 мес.
Сообщений: 3
Ratio: 389,967
100%
Я сам опер с 20 летним стажем, отличный сериал об операх и их проблемах в работе.
Ljeti
Стаж: 7 лет 7 мес.
Сообщений: 17
Ratio: 0,874
0%
здесь серии в конце не обрезаны?
 !  Обсуждалось. До появления DVD и WEB-DL других («неукороченных») версий не будет.
PavelTihonov
Стаж: 8 лет 7 мес.
Сообщений: 97
Ratio: 20,177
100%
Откуда: Penza
ussr.gif
концовки неокуратно оборваны

_________________
-=Amicus Humani Generis=-
ecgenov
Стаж: 2 года 3 мес.
Сообщений: 20
Ratio: 154,427
100%
НУ ДА НЕ ЧЁ НОРМАЛЬНО
Показать сообщения:   
Начать новую тему   Ответить на тему    Торрент-трекер NNM-Club -> Отечественные сериалы -> Ментовские войны Часовой пояс: GMT + 3
Страницы:   Пред.  1, 2
Страница 2 из 2