Классический форум-трекер
canvas not supported
Нас вместе: 4 078 845

На помощь! / Help! (1965) BDRip [1080p]


 
 
RSS
Начать новую тему   Ответить на тему    Торрент-трекер NNM-Club -> Архив торрентов -> Архив Музыкального Видео
Автор Сообщение
langust12 ®
Стаж: 5 лет 1 мес.
Сообщений: 1094
Ratio: 490,841
Поблагодарили: 65175
100%
russia.gif
На помощь! / Help! (1965) BDRip [1080p]
Страна: Великобритания
Год выпуска: 1965/2013
Жанр: Комедия, Музыкальный, Приключения

Описание фильма:
"На помощь!" - фильм режиссёра Ричарда Лестера, вышел на экраны вслед за нашумевшим фильмом "Вечер трудного дня". Но он не сыскал такую бешеную популярность, как первый фильм, хотя в нём опять же присутствовало много песен и шуток. Тем не менее он пользовался неплохой популярностью, а сейчас даже входит в разряд классики.
В фильме рассказывается об одной религиозной секте, которая поклонялась своей богине Каили. Для того, чтобы совершить жертвоприношение, на пальце человека, приносимого в жертву, должно быть священное кольцо. Именно оно и оказалось на пальце у ничего не подозревающего Ринго. Кольцо приросло к пальцу и его невозможно снять. "Битлз" вынуждены скрываться от фанатиков, охотящихся за Ринго. Они обращаются за помощью к доктору Футу, безумному учёному. Когда тому не удаётся снять кольцо, он решает тоже завладеть им в научных целях. На помощь "битлам" приходит девушка по имени Ахме, изменница культа. Ахме утверждает, что кольцо не пристаёт к храбрецам, и будь Ринго смелее, проблем бы не возникло. Она предлагает снять кольцо с пальца при помощи маленькой дозы уменьшающего средства. По ошибке доза этого средства достается Полу МакКартни, и он становится лилипутом. Погоня за группой продолжается, музыканты пытаются обращаться в полицию, но она бессильна. Культисты в итоге захватывают Ринго, и, связав его, угрожают отомстить остальной группе. В попытке спасти друзей Ринго проявляет мужество и снимает кольцо с пальца. Фильм заканчивается чехардой, в которой кольцо беспрестанно меняет владельца, за которым немедленно начинается охота.

Режиссер: Ричард Лестер / Richard Lester
Актеры: Ринго Старр, Джон Леннон, Пол МакКартни, Джордж Харрисон, Лео МакКерн, Элинор Брон, Виктор Спинетти, Рой Киннер, Патрик Каргилл

Продолжительность: 01:32:14
Качество видео: BDRip
Перевод: Одноголосый закадровый



Дата мировой премьеры: 29 июля 1965

Видеокодек: MPEG-4 AVC/H.264
Битрейт видео: ~16.1 Mb/s (23,976 fps)
Размер кадра: 1920x1080 (1080p, 16:9)
Аудиокодек: AC3 5.1
Битрейт аудио: 576 kbps (Russian / 48 kHz)
01. "Kaili"
02. HELP!
03. "Lovely Lads, And So Natural"
04. "PSST - Hey Beatle"
05. YOU'RE GOING TO LOSE THAT GIRL
06. "He's From The West"
07. The Specialists
08. YOU'VE GOT TO HIDE YOUR LOVE AWAY
09. Small Paul
10. TICKET TO RIDE
11. "Different Religion From Ours - I Think"
12. I NEED YOU
13. THE NIGHT BEFORE
14. A Well-Known Palace
15. One More Fiendish Attempt
16. The Bahamas
17. ANOTHER GIRL
18. "Right, To The Temple"
19. The Very Famous Plan
20. HELP! - FINALE
21. End Credits
Beatles_Help_BDR_1080p.m2ts
General #0
ID : 0 (0x0)
Complete name : Beatles_Help_BDR_1080p.m2ts
Format : BDAV
Format/Info : Advanced Video Codec
File size : 11.2 GiB
Duration : 1h 32mn
Overall bit rate : 17.4 Mbps
Maximum Overall bit rate : 48.0 Mbps
Video #4113
ID : 4113 (0x1011)
Menu ID : 1 (0x1)
Format : AVC
Format/Info : Advanced Video Codec
Format profile : High@L4.1
Format settings, CABAC : Yes
Format settings, ReFrames : 3 frames
Codec ID : 27
Duration : 1h 32mn
Bit rate : 16.1 Mbps
Width : 1 920 pixels
Height : 1 080 pixels
Display aspect ratio : 16:9
Frame rate mode : Variable
Color space : YUV
Chroma subsampling : 4:2:0
Bit depth : 8 bits
Scan type : Progressive
Stream size : 10.4 GiB (93%)
Audio #4352
ID : 4352 (0x1100)
Menu ID : 1 (0x1)
Format : AC-3
Format/Info : Audio Coding 3
Mode extension : CM (complete main)
Codec ID : 129
Duration : 1h 32mn
Bit rate mode : Constant
Bit rate : 576 Kbps
Channel(s) : 6 channels
Channel positions : Front: L C R, Side: L R, LFE
Sampling rate : 48.0 KHz
Bit depth : 16 bits
Compression mode : Lossy
Stream size : 379 MiB (3%)
Text #4608
ID : 4608 (0x1200)
Menu ID : 1 (0x1)
Format : PGS
Codec ID : 144
Оригинал -
На помощь! / The Beatles - Help! (1965/2013) Blu-Ray
Перевод и озвучка Максима Жолобова.
Скриншоты:


Время раздачи: до первых скачавших
[NNM-Club.me]_Beatles_Help_BDR_1080p.m2ts.torrent
 Торрент: Платиновая раздача  Зарегистрирован
 
Скачать


Примагнититься
 Зарегистрирован:   26 Сен 2014 22:57:27
 Размер:   11,2 GB  (
 Рейтинг:    (Голосов: 9)
 Поблагодарили:   28
 Проверка:   Оформление проверено модератором 01 Окт 2014 02:21:14
Как cкачать  ·  Как раздать  ·  Правильно оформить  ·  Поднять ратио!  
Загрузка...
Топик был перенесен из форума Опера, Балет, Мюзиклы в форум Архив Музыкального Видео

Причина переноса: Отсутствие сидов более трех месяцев.

Исправил релиз - напиши ЛС ALLic, дав ссылку на релиз.
Если нет ответа 24 часа - нажми на кнопку "Обратить внимание модераторов".
Показать сообщения:   
Начать новую тему   Ответить на тему    Торрент-трекер NNM-Club -> Архив торрентов -> Архив Музыкального Видео Часовой пояс: GMT + 3
Страница 1 из 1