Классический форум-трекер
canvas not supported
Нас вместе: 4 093 701

Ментовские войны (2014) DVB [H.264] (Сезон 8, серии 1-16 из 16)


 
 
RSS
Начать новую тему   Ответить на тему    Торрент-трекер NNM-Club -> Отечественные сериалы -> Ментовские войны
Автор Сообщение
yuriy seperovych ®
Стаж: 6 лет 9 мес.
Сообщений: 1701
Ratio: 984,538
Раздал: 31,33 TB
Поблагодарили: 159119
100%
Откуда: Киев
ukraine.gif
Ментовские войны (2014) DVB [H.264] (Сезон 8, серии 1-16 из 16)
Производство: "Студия Панорама", "Форвард-фильм", Россия
Год выпуска: 2014
Жанр: Боевик, Криминал, Детектив

Режиссер: Денис Скворцов
Актеры: Александр Устюгов, Дмитрий Быковский-Ромашов, Всеволод Цурило, Анатолий Узденский, Сергей Лысов, Ольга Иванова, Александр Лисицин, Руслан Ибрагимов, Андрей Родимов, Дарья Юргенс

Описание фильма:
Перевод в районный отдел лишает Романа Шилова многих привычных рычагов контроля над криминальной обстановкой в городе, но также развязывает ему руки. С помощью своих верных друзей — Павла Арнаутова и Евгения Иванова по прозвищу «Джексон» — он продолжает внимательно следить за обстановкой в ГУВД, и случай напомнить о себе предоставляется Роману очень скоро. Расследование махинаций начальника УБЭП Каспяряна приводит Романа к раскрытию целой системы торговли должностями и вымогательства под прикрытием высоких званий. Дубровский, не растерявший и толики своего былого влияния, продолжает насаждать коррупцию в Петербурге, но и Роман не думает ему уступать. Тем более, что в его руках наконец-то появляются сильные козыри против двух своих старых врагов — Ковалёва и Демидова…


Дата российской премьеры: 22.09.2014

Продолжительность: ~ 00:45:00 серия
Качество видео: DVB

Видеокодек: AVC/H.264
Битрейт видео: ~2200 Kbps
Размер кадра: 720x576 (16:9)
Аудиокодек: AC3
Битрейт аудио: 2 ch, 192 Kbps
Код: выделить все
Общее
Уникальный идентификатор : 226217512057226829813312040069667640972 (0xAA2FE87569B6D014B5926C8892EE568C)
Полное имя : E:\DOWNLOADS\Ментовские войны (8 сезон) 2014 DVB\Ментовские войны - 01 серия.mkv
Формат : Matroska
Версия формата : Version 2
Размер файла : 769 Мбайт
Продолжительность : 44 м.
Общий поток : 2416 Кбит/сек
Дата кодирования : UTC 2014-09-28 08:56:23
Программа кодирования : mkvmerge v6.1.0 ('Old Devil') built on Mar 4 2013 09:10:42
Библиотека кодирования : libebml v1.3.0 + libmatroska v1.4.0

Видео
Идентификатор : 1
Формат : AVC
Формат/Информация : Advanced Video Codec
Профиль формата : High@L3.0
Параметр CABAC формата : Да
Параметр ReFrames формата : 4 кадра
Идентификатор кодека : V_MPEG4/ISO/AVC
Продолжительность : 44 м.
Битрейт : 2176 Кбит/сек
Ширина : 720 пикселей
Высота : 576 пикселей
Соотношение сторон : 16:9
Режим частоты кадров : Постоянный
Частота кадров : 25,000 кадров/сек
Стандарт вещания : Component
Цветовое пространство : YUV
Субдискретизация насыщенности : 4:2:0
Битовая глубина : 8 бит
Тип развёртки : Чересстрочная
Порядок развёртки : Верхнее поле первое
Бит/(Пиксели*Кадры) : 0.210
Размер потока : 693 Мбайт (90%)
Default : Да
Forced : Нет
Основные цвета : BT.601 PAL
Характеристики трансфера : BT.470 System B, BT.470 System G
Коэффициенты матрицы : BT.601

Аудио
Идентификатор : 2
Формат : AC-3
Формат/Информация : Audio Coding 3
Расширение режима : CM (complete main)
Параметр Endianness формата : Big
Идентификатор кодека : A_AC3
Продолжительность : 44 м.
Вид битрейта : Постоянный
Битрейт : 192 Кбит/сек
Каналы : 2 канала
Расположение каналов : Front: L R
Частота : 48,0 КГц
Битовая глубина : 16 бит
Метод сжатия : С потерями
Размер потока : 61,1 Мбайт (8%)
Default : Да
Forced : Нет
Серия 01. Игра на чужом поле. Часть 1.
Серия 02. Игра на чужом поле. Часть 2.
Серия 03. Игра на чужом поле. Часть 3.
Серия 04. Игра на чужом поле. Часть 4.
Серия 05. Большой брат. Часть 1.
Серия 06. Большой брат. Часть 2.
Серия 07. Большой брат. Часть 3.
Серия 08. Большой брат. Часть 4.
Серия 09. Китайская ничья. Часть 1.
Серия 10. Китайская ничья. Часть 2.
Серия 11. Китайская ничья. Часть 3.
Серия 12. Китайская ничья. Часть 4.
Серия 13. Последняя война. Часть 1.
Серия 14. Последняя война. Часть 2.
Серия 15. Последняя война. Часть 3.
Серия 16. Последняя война. Часть 4.
Скриншоты:


Все раздачи сериала «Ментовские войны»

Время раздачи: c 10.00 до 20.00
[NNM-Club.me]_Mentovskie voynyi (8 sezon) 2014 DVB.torrent
 Торрент: Платиновая раздача  Зарегистрирован
 
Скачать


Примагнититься
 Зарегистрирован:   30 Сен 2014 12:28:07
 Размер:   12,1 GB  (
 Рейтинг:   4,5 (Голосов: 122)
 Поблагодарили:   507
 Проверка:   Оформление проверено модератором 01 Окт 2014 00:28:07
Как cкачать  ·  Как раздать  ·  Правильно оформить  ·  Поднять ратио!  
yuriy seperovych ®
Стаж: 6 лет 9 мес.
Сообщений: 1701
Ratio: 984,538
Раздал: 31,33 TB
Поблагодарили: 159119
100%
Откуда: Киев
ukraine.gif
30/09/2014 добавил 13-16 серии...
Waldewan
Стаж: 8 лет 9 мес.
Сообщений: 261
Ratio: 1,896
Поблагодарили: 125
0.44%
russia.gif
Огромное спасибо релизеру. Да, кое-где обрывается, где-то лишняя реклама новостей, но общей картины не портит. Самый нормальный сериал про ментов, хотя здесь драки и перестрелки поставлены намного хуже, чем в первых частях. Походу экономят. На Galaxy S3 очень четко, воткнул флешку и смотри. ГУД!
александр червяков 13
Стаж: 6 лет 2 мес.
Сообщений: 2
Ratio: 10,343
100%
Отличная работа!!!Благодарю!!!Жаль только,что серии обрываются в конце!!!
Гарис
Стаж: 10 лет 4 мес.
Сообщений: 18
Ratio: 12,912
Раздал: 1,331 TB
100%
Обрыв серий ???? качать или нет?
Brambort
Стаж: 5 лет 10 мес.
Сообщений: 1
Ratio: 20,418
14.29%
russia.gif
не стоит, рип корявый
Химерыч
Стаж: 10 лет 2 мес.
Сообщений: 196
Ratio: 9,865
6.35%
Спасибо! Наконец посмотрел восьмой сезон... Ну что сказать,предыдущие сезоны были лучше, старые актёры играют просто прекрасно... А вот игра некоторых новых... К примеру,"Демидову" лучше играть злодея в детских сказках - а коррумпированного усбшника,многое стало наиграно,постановка боевых сцен - вообще никакая.

В общем,смотрибельно.... Но как я уже сказал - предыдущие сезоны,были лучше.
Показать сообщения:   
Начать новую тему   Ответить на тему    Торрент-трекер NNM-Club -> Отечественные сериалы -> Ментовские войны Часовой пояс: GMT + 3
Страница 1 из 1