Классический форум-трекер
canvas not supported
Нас вместе: 4 093 670

Герои ментовских войн-8 (2014) SATRip


 
 
RSS
Начать новую тему   Ответить на тему    Торрент-трекер NNM-Club -> Документалистика и Телепередачи -> Посвящение искусству
Автор Сообщение
centoriuse ®
Предупреждений: 1
Предупреждений: 1 
Стаж: 9 лет 6 мес.
Сообщений: 5994
Ratio: 68,189
Раздал: 80,67 TB
Поблагодарили: 281270
100%
ussr.gif
Герои ментовских войн-8 (2014) SATRip
Режиссер / Телекомпания: Денис Скворцов / ООО «Студия Панорама», ООО «Форвард-Фильм»
Год выпуска: 2014
Жанр: Документальный

Описание:
Шилов, Джексон и Арнаутов - мужественные, решительные, серьезные! Такими зрители знают их уже восемь сезонов "Ментовских войн". И каждый сезон сериала интересен по-своему, ведь сценаристы часто берут за основу сюжетов реальные истории. А вот какие в реальности сами герои любимого сериала? Подробная информация. Любопытно, что перед началом съемок самого первого сезона продюсеры так обозначили требования к главному герою: "Нужен не красавец, но приятной наружности, с лицом простым и запоминающимся. И чтобы сразу было видно, что за плечами многолетний опыт и непростая жизнь". Александр Устюгов идеально подходил под это описание. Сегодня, спустя десять лет, Роман Шилов - уже сформировавшаяся личность со своими привычками и характером. Теперь он может себе позволить ездить не на автомобиле, а на резвом мотоцикле, и носить байкерскую куртку вместо пиджака! А еще Александра Устюгова на съемочной площадке частенько можно увидеть с гантелями: поддержание хорошей физической формы - неотъемлемая часть образа. Дмитрий Быковский и Всеволод Цурило себя не "истязают", поскольку им и так хватает физических нагрузок в театре и кино. Фильм "Герои "Ментовских войн - 8" расскажет и покажет, как выглядят раскадровки к разным сценам сериала, которые собственноручно рисует режиссер Денис Скворцов, как актеры шутят друг над другом на площадке и чем занимаются в свободное от работы время. Вы также узнаете, кто из героев чуть не стал милиционером, а также другие детали создания восьмого сезона сериала.

Участники: Александр Устюгов, Дмитрий Быковский-Ромашов, Всеволод Цурило, Мария Иванова, Анатолий Узденский, Сергей Лысов, Ольга Иванова, Александр Лисицын, Руслан Ибрагимов, Андрей Родимов, Владимир Сапрыкин, Дарья Юргенс, Александр Ленин, Марина Денисова, Антон Мошечков, Олег Гаянов, Андрей Погребенский, Диана Дезмари, Роман Жилкин, Владимир Кебин, Елизавета Ковалева, Владимир Студеновский

Продолжительность: 00:35:37
Качество видео: SATRip

Видеокодек: Xvid
Битрейт видео: ~1800 kbps
Размер кадра: 720x448
Аудиокодек: MP3, 2ch
Битрейт аудио: 128.00 kbps
Код:
Общее
Полное имя : F:\видео\фильмы\Geroi.mentovskih.voin.8.2014.avi
Формат : AVI
Формат/Информация : Audio Video Interleave
Размер файла : 494 Мбайт
Продолжительность : 35 м.
Общий поток : 1938 Кбит/сек
Библиотека кодирования : VirtualDub build 32817/release

Видео
Идентификатор : 0
Формат : MPEG-4 Visual
Профиль формата : Advanced Simple@L5
Параметр BVOP формата : 2
Параметр QPel формата : Нет
Параметр GMC формата : Без точки перехода
Параметр матрицы формата : Default (MPEG)
Идентификатор кодека : XVID
Идентификатор кодека/Подсказка : XviD
Продолжительность : 35 м.
Битрейт : 1800 Кбит/сек
Ширина : 720 пикселей
Высота : 448 пикселей
Соотношение сторон : 16:10
Частота кадров : 25,000 кадров/сек
Цветовое пространство : YUV
Субдискретизация насыщенности : 4:2:0
Битовая глубина : 8 бит
Тип развёртки : Прогрессивная
Метод сжатия : С потерями
Бит/(Пиксели*Кадры) : 0.223
Размер потока : 459 Мбайт (93%)
Библиотека кодирования : XviD 1.2.1 (UTC 2008-12-04)

Аудио
Идентификатор : 1
Формат : MPEG Audio
Версия формата : Version 1
Профиль формата : Layer 3
Режим : Joint stereo
Идентификатор кодека : 55
Идентификатор кодека/Подсказка : MP3
Продолжительность : 35 м.
Вид битрейта : Постоянный
Битрейт : 128 Кбит/сек
Каналы : 2 канала
Частота : 48,0 КГц
Метод сжатия : С потерями
Размер потока : 32,6 Мбайт (7%)
Выравнивание : Разделение по промежуткам
Продолжительность промежутка : 40 мс. (1,00 видеокадр)
Время предзагрузки промежутка : 500 мс.

Скриншоты:


Время раздачи: 24/7
[NNM-Club.me]_Geroi.mentovskih.voin.8.2014.avi.torrent
 Торрент: Платиновая раздача  Зарегистрирован
 
Скачать


Примагнититься
 Зарегистрирован:   29 Сен 2014 18:43:11
 Размер:   494 MB  (
 Рейтинг:   4,1 (Голосов: 36)
 Поблагодарили:   91
 Проверка:   Оформление проверено модератором 29 Сен 2014 19:24:03
Как cкачать  ·  Как раздать  ·  Правильно оформить  ·  Поднять ратио!  
Показать сообщения:   
Начать новую тему   Ответить на тему    Торрент-трекер NNM-Club -> Документалистика и Телепередачи -> Посвящение искусству Часовой пояс: GMT + 3
Страница 1 из 1