Классический форум-трекер
canvas not supported
Нас вместе: 4 083 494
Платим за отзывы

Случайная встреча / Juhuslik kohtumine (1961) TVRip [EST/Rus Sub]


 
 
RSS
Начать новую тему   Ответить на тему    Торрент-трекер NNM-Club -> Архив торрентов -> Архив Музыкального Видео
Автор Сообщение
nnmclub0112 ®
Стаж: 7 лет 10 мес.
Сообщений: 3895
Ratio: 94,029
Поблагодарили: 250311
100%
Случайная встреча / Juhuslik kohtumine (1961) TVRip [EST/Rus Sub]
Год выпуска: 1961
Производство: СССР, Таллинская киностудия (Таллинфильм)
Жанр: комедия, музыкальный фильм

Описание фильма:
Любимец таллинцев Рейн Лайго, солист молодежного эстрадного ансамбля, обеспокоенный тем, что он давно не радовал своих поклонников новой песней, однажды получает в подарок именно ту песню, о которой давно мечтал. Решено было до окончания репетиций держать песню в секрете. А тем временем скромная лаборантка Политехнического института, случайно услышав эту песню, решилась выступить с ней на конкурсе. Майя заняла первое место и ей предложили стать солисткой того самого ансамбля, в котором пел Лайго...

Режиссер: Виктор Невежин
Актеры: Георг Отс, Марина Юрасова, Арвед Хауг, Лия Лаатс, Эйно Баскин, Алиде Бок, Алисе Адер, Удо Треуфельдт, Юханнес Кепп, Уно Лооп, Антс Йыги, Криста Кац, Эри Клас, Юло Отс, Уно Эльтс, Яан Руубель, Олев Тинн

Продолжительность: 01:02:50
Качество видео: TVRip
Перевод: Отсутствует
Язык: Эстонский
Релиз группа: ФЕНИКС
Язык субтитров: Русские
Вид субтитров: Отдельным файлом



Видеокодек: Xvid
Битрейт видео: ~1572 Кбит/сек
Размер кадра: 688x400
Аудиокодек: MP3, 2 ch
Битрейт аудио: 192 Кбит/сек
Общее
Полное имя : E:\Интересно\!Подг\!Загот\Случайная встреча Juhuslik kohtumine (1961)\Случайная встреча (1961) TVRip\Случайная встреча (1961) TVRip.avi
Формат : AVI
Формат/Информация : Audio Video Interleave
Размер файла : 797 Мбайт
Продолжительность : 1 ч. 2 м.
Общий поток : 1774 Кбит/сек
Библиотека кодирования : VirtualDub build 32842/release

Видео
Идентификатор : 0
Формат : MPEG-4 Visual
Профиль формата : Advanced Simple@L5
Параметр BVOP формата : 1
Параметр QPel формата : Нет
Параметр GMC формата : Без точки перехода
Параметр матрицы формата : Default (H.263)
Идентификатор кодека : XVID
Идентификатор кодека/Подсказка : XviD
Продолжительность : 1 ч. 2 м.
Битрейт : 1572 Кбит/сек
Ширина : 688 пикселей
Высота : 400 пикселей
Соотношение сторон : 1,720
Частота кадров : 25,000 кадров/сек
Цветовое пространство : YUV
Субдискретизация насыщенности : 4:2:0
Битовая глубина : 8 бит
Тип развёртки : Прогрессивная
Метод сжатия : С потерями
Бит/(Пиксели*Кадры) : 0.229
Размер потока : 707 Мбайт (89%)

Аудио
Идентификатор : 1
Формат : MPEG Audio
Версия формата : Version 1
Профиль формата : Layer 3
Режим : Joint stereo
Расширение режима : MS Stereo
Идентификатор кодека : 55
Идентификатор кодека/Подсказка : MP3
Продолжительность : 1 ч. 2 м.
Вид битрейта : Постоянный
Битрейт : 192 Кбит/сек
Каналы : 2 канала
Частота : 48,0 КГц
Метод сжатия : С потерями
Размер потока : 86,3 Мбайт (11%)
Выравнивание : Разделение по промежуткам
Продолжительность промежутка : 40 мс. (1,00 видеокадр)
Время предзагрузки промежутка : 500 мс.
Библиотека кодирования : LAME3.98.4ЄЄЄЄЄЄЄЄЄЄ
Скриншоты:


Любимец таллинской публики Рейн Лайго, солист молодежного эстрадного ансамбля, был весьма обеспокоен тем, что он давно не радовал своих поклонников новой песней. Да и все его друзья-коллеги из ансамбля также мечтали об обновлении репертуара. Но разве так легко найти песни, которые не уступали бы прежним, также полюбились бы?
И вот, наконец, песня есть. Именно такая, какую давно хотелось Лайго! Её написал и подарил друзьям один из участников ансамбля - Хинно. Решено было до окончания репетиций держать песню в секрете, чтобы она стала для всех приятным сюрпризом.
Но прошло несколько дней - и Рейн, вернувшийся из гастрольной поездки по республике, с изумлением услышал на улицах города ту самую песню! Оказалось, что композиция уже приобрела у таллинцев большую популярность! Но как же это произошло? Оказалось, что всему виной - Его Величество Случай и... скромная лаборантка политехнического института Майя Лехтла.
Майя не первый год пела в самодеятельном хоре. Голос у девушки был красивый и сильный, но по характеру она была весьма робкой и нерешительной. Её подружкам стоило больших трудов уговорить её принять участие в конкурсе, который устраивала филармония на замещение вакантной должности солистки эстрадного ансамбля - того самого, в котором пел Рейн Лайго... Когда Майя решилась, наконец, переступить порог филармонии, она, проходя по коридорам, случайно услышала ту самую "секретную" мелодию... Песня Майе очень понравилась, она спела её своим подругам, потом песню разучил разучил институтский хор, а сама Майя решила исполнить композицию на предстоящем конкурсе.
Все эти события повлекли за собой целую вереницу не менее неожиданных и весёлых совпадений...

В 1958 году на экраны СССР вышел "Мистер Икс" - музыкальный фильм по оперетте Имре Кальмана "Принцесса цирка". Картину ждал оглушительный успех, а исполнители главных ролей Георг Отс и Марина Юрасова приобрели всесоюзную славу. Спустя три года после этого тримуфа кинематографическая судьба вновь свела Отса и Юрасову на съёмочной площадке. На сей раз им предстояло исполнить роли своих современников в эстонской музыкальной комедии "Случайная встреча". Литературной основой фильма стал премированный сценарий Юри Ярвета "Павлин".
Конечно, на повторение триумфа "Мистера Икс" создатели картины не рассчитывали. К тому же кинокритикам фильм пришёлся не по душе - они отметили, что "авторы не сумели до конца высмеять халтуру и равнодушие, в результате чего встречи с современными проблемами искусства остались в фильме — как по существу, так и по форме — весьма случайными. А что касается музыкальной стороны, то исполнение песен Э. Арро и У. Найссоо было в надёжных руках, но их следовало отобрать более тщательно, с учётом индивидуальности Георга Отса". Но несмотря на это, зрителям Советского Союза пришлась по душе весёлая история, приключившаяся с известным певцом и скромной университетской лаборанткой. Особую популярность приобрели песни из фильма. Некоторые из них, как, например, "Балтийский вальс" и "Песня о Таллине" в исполнении Георга Отса, и по сей день являются своего рода визитными карточками выдающегося эстонского певца. А в Эстонии наибольших успехом пользовалась "Песня Марики" в стиле фри-джаз, забавно исполненная замечательной комедийной актрисой Лией Лаатс - композиция, которая, по замыслу авторов, должна была показать "вульгарность и немузыкальность некоторых направлений исполнителького искусства"!

В фильме "Случайная встреча" Георг Отс исполнил песни: "Балтийский вальс", "Песня о болтуне", "Старинный добрый вальс", "Песня о счастье", "Родной Таллин", "У нас сегодня день рождения".
В эстонской киноверсии вокальные партии Майи исполнила Валентина Хейм.
Время раздачи: С 10:00 до 23:00
[NNM-Club.me]_Sluchaynaya vstrecha (1961) TVRip.torrent
 Торрент: Платиновая раздача  Зарегистрирован
 
Скачать


Примагнититься
 Зарегистрирован:   30 Сен 2014 07:13:02
 Размер:   798 MB  (
 Рейтинг:   4,6 (Голосов: 10)
 Поблагодарили:   33
 Проверка:   Оформление проверено модератором 30 Сен 2014 22:35:58
Как cкачать  ·  Как раздать  ·  Правильно оформить  ·  Поднять ратио!  
Loading...
Топик был перенесен из форума Опера, Балет, Мюзиклы в форум Архив Музыкального Видео

Причина переноса: Отсутствие сидов более трех месяцев.

Исправил релиз - напиши ЛС ALLic, дав ссылку на релиз.
Если нет ответа 24 часа - нажми на кнопку "Обратить внимание модераторов".
Показать сообщения:   
Начать новую тему   Ответить на тему    Торрент-трекер NNM-Club -> Архив торрентов -> Архив Музыкального Видео Часовой пояс: GMT + 3
Страница 1 из 1