Классический форум-трекер
canvas not supported
Нас вместе: 4 103 896

Вечный ноль / Eien no 0 / The Eternal Zero (2013) DVDRip [VO]


 
 
RSS
Начать новую тему   Ответить на тему    Торрент-трекер NNM-Club -> Зарубежное кино -> Азиатское кино (HD*Rip/LQ, DVDRip, SATRip, VHSRip)
Автор Сообщение
alf62 ®
RG NNM-Club DocTV
Ведущий Документалист
 
Стаж: 11 лет 5 мес.
Сообщений: 3453
Ratio: 2054,025
Поблагодарили: 158087
100%
russia.gif
Вечный ноль / Eien no 0 / The Eternal Zero (2013) DVDRip
Производство: Япония / Toho Company, Amuse, Amuse Soft Entertainment
Жанр: боевик, драма, детектив, военный

Режиссер: Такаси Ямадзаки
Актеры: Мин Танака, Харума Миура, Мао Иноэ, Исао Натсуяги, Шота Сометани, Дзюнити Окада, Микидзиро Хира, Кадзуэ Фукииси, Хирофуми Арай

Описание:
По одноименному роману Наоки Хякуто, опубликованному в 2006 году и проданному тиражом в более 1 млн. копий.
Молодой Кентаро проваливает свой экзамен на право заниматься адвокатской практикой и не знает, что делать дальше. Его старшая сестра Кейко является свободной писательницей. Вместе они начинают искать информацию о своем дедушке Кюзо, который погиб во время Второй мировой войны.



Релиз от: рип alf62
Продолжительность: 02:23:25
Качество видео: DVDRip
Перевод: Любительский одноголосый (den904)

Видеокодек: DivX 5, 720x304, ~1935 kbps
Аудиокодек: AC3, 2 ch, 192 kbps
DVDRip by alf62
Большое СПАСИБО за работу над фильмом целому коллективу:
- за субтитры, по которым сделано озвучивание: Yuli4ka_Daisuke;
- за озвучивание: den904;
- инициаторам организации перевода: alinto, jasenka, Arias, Der eiserne Wolf, babek555, Cybernn, Lentyai80, Drenkens, Nmaska;
- за наложение чистого голоса на оригинальную дорогу: Нордер;
- за первоисточник DVD: alinto

Вечный ноль The Eternal Zero\Vechnyj.nol.2013.DivX.DVDRip.alf62.avi
Формат : AVI
Формат/Информация : Audio Video Interleave
Профиль формата : OpenDML
Размер файла : 2,14 Гбайт
Продолжительность : 2 ч. 23 м.
Общий поток : 2139 Кбит/сек
Программа кодирования : VirtualDubModRus 1.5.10.2 (build 2542/release)
Библиотека кодирования : VirtualDubMod build 2542/release

Видео
Идентификатор : 0
Формат : MPEG-4 Visual
Профиль формата : Advanced Simple@L5
Параметр BVOP формата : 2
Параметр QPel формата : Нет
Параметр GMC формата : Без точки перехода
Параметр матрицы формата : Default (MPEG)
Идентификатор кодека : DX50
Идентификатор кодека/Подсказка : DivX 5
Продолжительность : 2 ч. 23 м.
Битрейт : 1935 Кбит/сек
Ширина : 720 пикселей
Высота : 304 пикселя
Соотношение сторон : 2,35:1
Частота кадров : 23,976 кадра/сек
Цветовое пространство : YUV
Субдискретизация насыщенности : 4:2:0
Битовая глубина : 8 бит
Тип развёртки : Прогрессивная
Метод сжатия : С потерями
Бит/(Пиксели*Кадры) : 0.369
Размер потока : 1,94 Гбайт (90%)
Библиотека кодирования : XviD 73

Аудио
Идентификатор : 1
Формат : AC-3
Формат/Информация : Audio Coding 3
Расширение режима : CM (complete main)
Параметр Endianness формата : Big
Идентификатор кодека : 2000
Продолжительность : 2 ч. 23 м.
Вид битрейта : Постоянный
Битрейт : 192 Кбит/сек
Каналы : 2 канала
Расположение каналов : Front: L R
Частота : 48,0 КГц
Битовая глубина : 16 бит
Метод сжатия : С потерями
Размер потока : 197 Мбайт (9%)
Выравнивание : Разделение по промежуткам
Продолжительность промежутка : 42 мс. (1,00 видеокадр)
Время предзагрузки промежутка : 500 мс.
Скриншоты:



Все одноименные релизы в Клубе

Время раздачи: 24/7 (круглосуточно)
[NNM-Club.me]_Vechnyj.nol.2013.DivX.DVDRip.alf62.avi.torrent
 Торрент: Платиновая раздача  Зарегистрирован
 
Скачать


Примагнититься
 Зарегистрирован:   02 Окт 2014 23:34:13
 Размер:   2,14 GB  (
 Рейтинг:   4,7 (Голосов: 86)
 Поблагодарили:   435
 Проверка:   Оформление проверено модератором 06 Фев 2020 05:15:02
Как cкачать  ·  Как раздать  ·  Правильно оформить  ·  Поднять ратио!  
ZuluFox1
Стаж: 6 лет 8 мес.
Сообщений: 33
Ratio: 7,433
1.11%
ussr.gif
Хороший фильм.
Andy 111
Стаж: 9 лет 5 мес.
Сообщений: 23
Ratio: 4,209
0.76%
Xороший.
Krabsinger
Стаж: 7 лет 7 мес.
Сообщений: 1
Ratio: 22,599
0.49%
согласен, хороший
Zummer87
Стаж: 7 лет 2 мес.
Сообщений: 73
Ratio: 2,987
73.91%
Мало сказать Хороший,фильм просто отличный. На фоне отрыжки западного кинематографа данной тематики в последнее время,япония сняла безусловный шедевр.
K-131
Стаж: 10 лет 11 мес.
Сообщений: 437
Ratio: 119,077
Поблагодарили: 11747
100%
Zummer87 писал(а): Перейти к сообщению
Мало сказать Хороший,фильм просто отличный. На фоне отрыжки западного кинематографа данной тематики в последнее время,япония сняла безусловный шедевр.

+1 :приветствую: :клево:

_________________
РусланSil
Стаж: 9 лет 5 мес.
Сообщений: 103
Ratio: 2,072
100%
russia.gif
понравилось :клево:
Zummer87
Стаж: 7 лет 2 мес.
Сообщений: 73
Ratio: 2,987
73.91%
не часто пишу комментарии, но фильм заслуживает того чтобы стать частью коллекции.
Shafkat1
Стаж: 6 лет 7 мес.
Сообщений: 22
Ratio: 1,987
0%
Снят качественно. Молодцы.

Но.

Ощущение, что в Японии закончилась эра вселенского покаяния за войну и они вслед за Германией( "Наши матери, наши отцы") начинаются эру героизации.

Окна Овертона, однако.

Следующим логичным шагом будет фильм-пересмотр итогов войны.
Evil_Panda
Стаж: 12 лет
Сообщений: 23
Ratio: 23,561
Раздал: 18,41 TB
100%
russia.gif
а без дэна904 есть?
AndAll
Стаж: 12 лет 5 мес.
Сообщений: 4
Ratio: 59,234
100%
russia.gif
Фильм достойный.
Levantine
Стаж: 2 года 6 мес.
Сообщений: 10
Ratio: 1,3
1.69%
вечный зеро?) Mitsubishi A6M Zero?)
v9o4v9a1n
Стаж: 8 лет 10 мес.
Сообщений: 847
Ratio: 2,177
100%
albania.gif
Посмотрели, СИЛЬНЫЙ фильм.

_________________
В дискуссии не вступаю, на вопросы не отвечаю.
Показать сообщения:   
Начать новую тему   Ответить на тему    Торрент-трекер NNM-Club -> Зарубежное кино -> Азиатское кино (HD*Rip/LQ, DVDRip, SATRip, VHSRip) Часовой пояс: GMT + 3
Страница 1 из 1