Классический форум-трекер
canvas not supported
Нас вместе: 4 081 379

Профессионал / Le professionnel (1981) BDRip [H.264]


 
 
RSS
Начать новую тему   Ответить на тему    Торрент-трекер NNM-Club -> Классика кино и Старые фильмы до 90-х -> Зарубежная Классика (HD*Rip/LQ, DVDRip, SATRip, VHSRip)
Автор Сообщение
Маrilуn Моnrое ®
Стаж: 9 лет 10 мес.
Сообщений: 1284
Ratio: 88,791
Поблагодарили: 199606
100%
Откуда: Южный Урал™
ussr.gif
Профессионал / Le professionnel (1981) BDRip [H.264]
« Раненый зверь опасен вдвойне »

Год выпуска: 1981
Производство: Франция | Les Films Ariane, Cerito Films
Жанр: Боевик, Триллер, Драма, Криминал

Режиссер: Жорж Лотнер
Продюсер: Ален Бельмондо, Жорж Дансижер, Александр Мнушкин
Актеры: Жан-Поль Бельмондо, Жан Десайи, Сирил Клер, Мари-Кристин Декуар, Элизабет Маргони, Жан-Луи Ришар, Мишель Бон, Бернар-Пьер Доннадье, Пьер Сентон, Жерар Дарьё, Сидики Бакаба, Робер Оссейн, Дани Коган, Марк Ламоль, Шейк Дукуре, Серж Нюбре

Описание:
Убить президента африканской республики. Такое задание получил секретный агент Жослен Бомон. Внезапно политика изменилась, и французское правительство сдает героя африканским властям. Сбежав с каторги, волк-одиночка возвращается на родину с одной целью: довести задание до конца. А чернокожий лидер как раз приезжает во Францию.

Перевод: Профессиональный дублированный, профессиональный многоголосый, авторский
Вид субтитров: Вшитые отключаемые
Язык субтитров: Русский


Дата мировой премьеры: 21 октября 1981
Дата выхода DVD релиза: 16 декабря 2010, «Neoclassica»

Качество видео: BDRip [H.264]
Продолжительность: 01:47:53
Возраст 16+: Зрителям, достигшим 16 лет

Видео: MPEG-4 AVC/H.264, 3500 Kbps, 1024 x 576
Аудио 1: Русский AC3 2.0, 192 Kbps, 48.0 KHz (Полное дублирование) Мосфильм
Аудио 2: Русский AC3 2.0, 192 Kbps, 48.0 KHz (Многоголосый закадровый) Киностудия им. Горького
Аудио 3: Русский AC3 2.0, 192 Kbps, 48.0 KHz (Многоголосый закадровый) Неоклассика
Аудио 4: Русский AC3 2.0, 192 Kbps, 48.0 KHz (Многоголосый закадровый) Тивионика
Аудио 5: Русский AC3 2.0, 192 Kbps, 48.0 KHz (Одноголосый закадровый) Л. Володарский
Аудио 6: Русский AC3 2.0, 192 Kbps, 48.0 KHz (Одноголосый закадровый) С. Кузнецов
Аудио 7: Французский AC3 2.0, 224 Kbps, 48.0 KHz (Оригинал)
Код: выделить все

Общее
Полное имя : Профессионал.mkv
Формат : Matroska
Версия формата : Version 1
Размер файла : 3,68 Гбайт
Продолжительность : 1 ч. 47 м.
Общий поток : 4879 Кбит/сек
Дата кодирования : UTC 2014-10-03 08:24:09
Программа кодирования : mkvmerge v2.4.1 ('Use Me') built on Dec 5 2008 18:30:05
Библиотека кодирования : libebml v0.7.7 + libmatroska v0.8.1

Видео
Идентификатор : 1
Формат : AVC
Формат/Информация : Advanced Video Codec
Профиль формата : High@L4.1
Параметр CABAC формата : Да
Параметр ReFrames формата : 10 кадров
Идентификатор кодека : V_MPEG4/ISO/AVC
Продолжительность : 1 ч. 47 м.
Битрейт : 3500 Кбит/сек
Ширина : 1024 пикселя
Высота : 576 пикселей
Соотношение сторон : 16:9
Режим частоты кадров : Постоянный
Частота кадров : 24,000 кадра/сек
Цветовое пространство : YUV
Субдискретизация насыщенности : 4:2:0
Битовая глубина : 8 бит
Тип развёртки : Прогрессивная
Бит/(Пиксели*Кадры) : 0.247
Размер потока : 2,57 Гбайт (70%)
Заголовок : Профессионал (1981)
Библиотека кодирования : x264 core 133 r2334 a3ac64b
Настройки программы : cabac=1 / ref=10 / deblock=1:-3:-3 / analyse=0x3:0x133 / me=umh / subme=10 / psy=1 / psy_rd=1.00:0.10 / mixed_ref=1 / me_range=48 / chroma_me=1 / trellis=2 / 8x8dct=1 / cqm=0 / deadzone=21,11 / fast_pskip=0 / chroma_qp_offset=-3 / threads=6 / lookahead_threads=1 / sliced_threads=0 / nr=0 / decimate=1 / interlaced=0 / bluray_compat=0 / constrained_intra=0 / bframes=5 / b_pyramid=2 / b_adapt=2 / b_bias=0 / direct=3 / weightb=1 / open_gop=0 / weightp=2 / keyint=240 / keyint_min=22 / scenecut=40 / intra_refresh=0 / rc_lookahead=40 / rc=2pass / mbtree=1 / bitrate=3500 / ratetol=1.0 / qcomp=0.60 / qpmin=10 / qpmax=51 / qpstep=4 / cplxblur=20.0 / qblur=0.5 / ip_ratio=1.40 / aq=1:1.00
Язык : French

Аудио #1
Идентификатор : 2
Формат : AC-3
Формат/Информация : Audio Coding 3
Расширение режима : CM (complete main)
Параметр Endianness формата : Big
Идентификатор кодека : A_AC3
Продолжительность : 1 ч. 47 м.
Вид битрейта : Постоянный
Битрейт : 192 Кбит/сек
Каналы : 2 канала
Расположение каналов : Front: L R
Частота : 48,0 КГц
Битовая глубина : 16 бит
Метод сжатия : С потерями
Размер потока : 148 Мбайт (4%)
Заголовок : AC3 (Дублированный) Мосфильм
Язык : Russian

Аудио #2
Идентификатор : 3
Формат : AC-3
Формат/Информация : Audio Coding 3
Расширение режима : CM (complete main)
Параметр Endianness формата : Big
Идентификатор кодека : A_AC3
Продолжительность : 1 ч. 47 м.
Вид битрейта : Постоянный
Битрейт : 192 Кбит/сек
Каналы : 2 канала
Расположение каналов : Front: L R
Частота : 48,0 КГц
Битовая глубина : 16 бит
Метод сжатия : С потерями
Размер потока : 148 Мбайт (4%)
Заголовок : AC3 (Многоголосый) Киностудия им. Горького
Язык : Russian

Аудио #3
Идентификатор : 4
Формат : AC-3
Формат/Информация : Audio Coding 3
Расширение режима : CM (complete main)
Параметр Endianness формата : Big
Идентификатор кодека : A_AC3
Продолжительность : 1 ч. 47 м.
Вид битрейта : Постоянный
Битрейт : 192 Кбит/сек
Каналы : 2 канала
Расположение каналов : Front: L R
Частота : 48,0 КГц
Битовая глубина : 16 бит
Метод сжатия : С потерями
Размер потока : 148 Мбайт (4%)
Заголовок : AC3 (Многоголосый) Неоклассика
Язык : Russian

Аудио #4
Идентификатор : 5
Формат : AC-3
Формат/Информация : Audio Coding 3
Расширение режима : CM (complete main)
Параметр Endianness формата : Big
Идентификатор кодека : A_AC3
Продолжительность : 1 ч. 47 м.
Вид битрейта : Постоянный
Битрейт : 192 Кбит/сек
Каналы : 2 канала
Расположение каналов : Front: L R
Частота : 48,0 КГц
Битовая глубина : 16 бит
Метод сжатия : С потерями
Размер потока : 148 Мбайт (4%)
Заголовок : AC3 (Многоголосый) Тивионика
Язык : Russian

Аудио #5
Идентификатор : 6
Формат : AC-3
Формат/Информация : Audio Coding 3
Расширение режима : CM (complete main)
Параметр Endianness формата : Big
Идентификатор кодека : A_AC3
Продолжительность : 1 ч. 47 м.
Вид битрейта : Постоянный
Битрейт : 192 Кбит/сек
Каналы : 2 канала
Расположение каналов : Front: L R
Частота : 48,0 КГц
Битовая глубина : 16 бит
Метод сжатия : С потерями
Размер потока : 148 Мбайт (4%)
Заголовок : AC3 (Одноголосый) Л. Володарский
Язык : Russian

Аудио #6
Идентификатор : 7
Формат : AC-3
Формат/Информация : Audio Coding 3
Расширение режима : CM (complete main)
Параметр Endianness формата : Big
Идентификатор кодека : A_AC3
Продолжительность : 1 ч. 47 м.
Вид битрейта : Постоянный
Битрейт : 192 Кбит/сек
Каналы : 2 канала
Расположение каналов : Front: L R
Частота : 48,0 КГц
Битовая глубина : 16 бит
Метод сжатия : С потерями
Размер потока : 148 Мбайт (4%)
Заголовок : AC3 (Одноголосый) С. Кузнецов
Язык : Russian

Аудио #7
Идентификатор : 8
Формат : AC-3
Формат/Информация : Audio Coding 3
Расширение режима : CM (complete main)
Параметр Endianness формата : Big
Идентификатор кодека : A_AC3
Продолжительность : 1 ч. 47 м.
Вид битрейта : Постоянный
Битрейт : 224 Кбит/сек
Каналы : 2 канала
Расположение каналов : Front: L R
Частота : 48,0 КГц
Битовая глубина : 16 бит
Метод сжатия : С потерями
Размер потока : 173 Мбайт (5%)
Заголовок : AC3 (Оригинал)
Язык : French

Текст
Идентификатор : 9
Формат : UTF-8
Идентификатор кодека : S_TEXT/UTF8
Идентификатор кодека/Информация : UTF-8 Plain Text
Заголовок : Русские
Язык : Russian
Фильм снят по мотивам романа Патрика Александера «Смерть зверя с тонкой кожей» (Death of a Thin-Skinned Animal, 1976).
Последняя сцена фильма снималась в поместье замка Ля-Ферьер, неподалёку от города Рамбуйе.
Автомобили участвующие в сцене погони: Fiat-131 «Mirafiori» у главного героя и Peugeot-504 у агентов спецслужб.
В фильме главный герой вешает на мёртвого комиссара свой жетон. На жетоне надпись «BEAUMONT Josselin 56-322-460». Цифры можно расшифровать так: 56 - плотность населения на км страны Кот-д’Ивуар (в переводе «Берег Слоновой Кости», место заключения Жосслена «Жосс» Бомона) или её номер в списке площадей стран мира на момент выхода фильма; 322 460 - площадь Кот-д’Ивуара в км.
Скриншоты:
[NNM-Club.me]_Professional.mkv.torrent
 Торрент: Платиновая раздача  Зарегистрирован
 
Скачать


Примагнититься
 Зарегистрирован:   03 Окт 2014 17:03:55
 Размер:   3,68 GB  (
 Рейтинг:   4,9 (Голосов: 147)
 Поблагодарили:   401
 Проверка:   Оформление проверено модератором 05 Окт 2014 22:27:01
Как cкачать  ·  Как раздать  ·  Правильно оформить  ·  Поднять ратио!  
Last13
Стаж: 5 лет 3 мес.
Сообщений: 461
Ratio: 6,986
100%
лучший!
SsSneikeSsS
 
Стаж: 10 лет 4 мес.
Сообщений: 327
Ratio: 12,715
100%
Откуда: PNZ
russia.gif
Отличный Фильм !!! Спасибо от души !!!
S_L_E_E_P
Стаж: 10 лет 6 мес.
Сообщений: 29
Ratio: 0,95
67.5%
belarus.gif
король
ZhulickD
Стаж: 7 лет 8 мес.
Сообщений: 45
Ratio: 6,898
100%
cuba.gif
за качество отдельное спасибо
Толя19691969
Стаж: 3 года 4 мес.
Сообщений: 35
Ratio: 348,899
100%
Спасибо за этот фильм!
sanek301
Стаж: 9 лет 1 мес.
Сообщений: 5
Ratio: 6,226
0%
russia.gif
то чувство когда фильм почти 40 летней давности лучше любого современного фильма! Спасибо за качество
NVV_RW
Стаж: 4 года
Сообщений: 18
Ratio: 734,387
100%
russia.gif
Одна музыка Мориконе чего стоит!
dejv1
Только чтение
Стаж: 7 лет 10 мес.
Сообщений: 101
Ratio: 16,547
75.67%
кроме спасибо что выложили - об этом фильме нечего сказать.
Casablanka
Стаж: 6 лет 10 мес.
Сообщений: 116
Ratio: 86,016
Поблагодарили: 16
50%
Фильм сделала популярной музыка на последних кадрах. В-остальном, вполне себе дешёвый фильмец, даже Бельмондо его не вытянул. Сюжет примитивный, шаблонный донельзя. Персонажи картонные, диалоги писал кретин. Главный герой — убийца, сочувствовать ему странно. Его подставили хозяева? Ай-яй-яй, можно подумать, он не знал, кто они такие.

Один из образцов западного кинематографа, где киноделы постоянно восхищаются различного рода мразями — то убийцами, то грабителями, то мстителями всех видов. И название потому такое пафосное — «Профессионал». А тот, кто детей учит — не профессионал? Кто людей лечит — не профессионал? Но режиссёр будет восхищаться убийцами.

Повторюсь — музыка отличная, но это всё, что есть хорошего в фильме.
dejv1
Только чтение
Стаж: 7 лет 10 мес.
Сообщений: 101
Ratio: 16,547
75.67%
Casablanka писал(а): Перейти к сообщению
Фильм сделала популярной музыка на последних кадрах. В-остальном, вполне себе дешёвый фильмец, даже Бельмондо его не вытянул. Сюжет примитивный, шаблонный донельзя. Персонажи картонные, диалоги писал кретин. Главный герой — убийца, сочувствовать ему странно. Его подставили хозяева? Ай-яй-яй, можно подумать, он не знал, кто они такие.

Один из образцов западного кинематографа, где киноделы постоянно восхищаются различного рода мразями — то убийцами, то грабителями, то мстителями всех видов. И название потому такое пафосное — «Профессионал». А тот, кто детей учит — не профессионал? Кто людей лечит — не профессионал? Но режиссёр будет восхищаться убийцами.

Повторюсь — музыка отличная, но это всё, что есть хорошего в фильме.


этот фильм ностальгия. хороший фильм. сейчас согласен - есть много фильмов куда не хуже. только не российских. так что нечего кивать на запад со своими защитниками, т-43 и прочей херней типа бригад-разбитых фонарей и братства, или вообще крайне дебильнуватого пропагандонства тыпа "крым" или "путин", когда у самих рожа крайне кривая. ну да, а энио - это не на одну сотню лет классика. в этом единственном мы сойдемся.
sergzbk
Стаж: 5 лет
Сообщений: 34
Ratio: 1,927
4.32%
Casablanka писал(а): Перейти к сообщению
Фильм сделала популярной музыка на последних кадрах. В-остальном, вполне себе дешёвый фильмец, даже Бельмондо его не вытянул. Сюжет примитивный, шаблонный донельзя. Персонажи картонные, диалоги писал кретин. Главный герой — убийца, сочувствовать ему странно. Его подставили хозяева? Ай-яй-яй, можно подумать, он не знал, кто они такие.

Один из образцов западного кинематографа, где киноделы постоянно восхищаются различного рода мразями — то убийцами, то грабителями, то мстителями всех видов. И название потому такое пафосное — «Профессионал». А тот, кто детей учит — не профессионал? Кто людей лечит — не профессионал? Но режиссёр будет восхищаться убийцами.

Повторюсь — музыка отличная, но это всё, что есть хорошего в фильме.


О смысле фильма говорит его название. Не нужно мерить этот фильм, его нужно прочувствовать. Музыка это да, но её слишком много.

PS. Среди тех кто детей учит профессионалов очень мало, ну и про тех кто лечит. Много людей кто случайно пришёл в эту профессию.
Показать сообщения:   
Начать новую тему   Ответить на тему    Торрент-трекер NNM-Club -> Классика кино и Старые фильмы до 90-х -> Зарубежная Классика (HD*Rip/LQ, DVDRip, SATRip, VHSRip) Часовой пояс: GMT + 3
Страница 1 из 1