Классический форум-трекер
canvas not supported
Нас вместе: 4 079 152

Море в огне (1970) IPTVRip (2 серии из 2)


 
 
RSS
Начать новую тему   Ответить на тему    Торрент-трекер NNM-Club -> Классика кино и Старые фильмы до 90-х -> Старые Отечественные Фильмы (HD*Rip/LQ, DVDRip, SATRip, VHSRip)
Автор Сообщение
nnmclub0112 ®
Стаж: 7 лет 9 мес.
Сообщений: 3894
Ratio: 96,961
Поблагодарили: 249621
100%
Море в огне (1970) IPTVRip (2 серии из 2)
Жанр: Военный, Драма

Режиссер: Леон Сааков
Актеры: Григорий Антоненко, Николай Гринько, Ростислав Янковский, Всеволод Платов, Владимир Кашпур, Константин Тыртов, Дальвин Щербаков, Сергей Ляхницкий, Юрий Соломин, Ольга Остроумова и другие

Описание:
Фильм воссоздаёт героическую эпопею обороны Севастополя в 1941—1942 годах.



Продолжительность: 02:16:31
Качество видео: IPTVRip

Видеокодек: Xvid
Битрейт видео: ~1800 Кбит/сек
Размер кадра: 720x320
Аудиокодек: MP3, 2 ch
Битрейт аудио: 128 Кбит/с
Общее
Полное имя : E:\Море в огне (2 серии) (1970) IPTVRip\Море в огне (1970, 1сер).avi
Формат : AVI
Формат/Информация : Audio Video Interleave
Размер файла : 730 Мбайт
Продолжительность : 1 ч. 22 м.
Общий поток : 1236 Кбит/сек
Программа кодирования : VirtualDubMod 1.5.10.3 | www.virtualdub-fr.org || (build 2550/release)
Библиотека кодирования : VirtualDub build 35560/release

Видео
Идентификатор : 0
Формат : MPEG-4 Visual
Профиль формата : Advanced Simple@L5
Параметр BVOP формата : 2
Параметр QPel формата : Нет
Параметр GMC формата : Без точки перехода
Параметр матрицы формата : Default (H.263)
Идентификатор кодека : XVID
Идентификатор кодека/Подсказка : XviD
Продолжительность : 1 ч. 22 м.
Битрейт : 1099 Кбит/сек
Ширина : 720 пикселей
Высота : 320 пикселей
Соотношение сторон : 2,25:1
Частота кадров : 25,000 кадров/сек
Цветовое пространство : YUV
Субдискретизация насыщенности : 4:2:0
Битовая глубина : 8 бит
Тип развёртки : Прогрессивная
Метод сжатия : С потерями
Бит/(Пиксели*Кадры) : 0.191
Размер потока : 649 Мбайт (89%)
Библиотека кодирования : XviD 73

Аудио
Идентификатор : 1
Формат : MPEG Audio
Версия формата : Version 1
Профиль формата : Layer 3
Режим : Joint stereo
Идентификатор кодека : 55
Идентификатор кодека/Подсказка : MP3
Продолжительность : 1 ч. 22 м.
Вид битрейта : Постоянный
Битрейт : 128 Кбит/сек
Каналы : 2 канала
Частота : 48,0 КГц
Метод сжатия : С потерями
Размер потока : 75,6 Мбайт (10%)
Выравнивание : Разделение по промежуткам
Продолжительность промежутка : 40 мс. (1,00 видеокадр)
Время предзагрузки промежутка : 500 мс.

Общее
Полное имя : E:\Море в огне (2 серии) (1970) IPTVRip\Море в огне (1970, 2сер).avi
Формат : AVI
Формат/Информация : Audio Video Interleave
Размер файла : 749 Мбайт
Продолжительность : 53 м.
Режим общего битрейта : Переменный
Общий поток : 1941 Кбит/сек
Программа кодирования : VirtualDubMod 1.5.10.3 | www.virtualdub-fr.org || (build 2550/release)
Библиотека кодирования : VirtualDubMod build 2550/release

Видео
Идентификатор : 0
Формат : MPEG-4 Visual
Профиль формата : Advanced Simple@L5
Параметр BVOP формата : 2
Параметр QPel формата : Нет
Параметр GMC формата : Без точки перехода
Параметр матрицы формата : Default (H.263)
Идентификатор кодека : XVID
Идентификатор кодека/Подсказка : XviD
Продолжительность : 53 м.
Битрейт : 1800 Кбит/сек
Ширина : 720 пикселей
Высота : 320 пикселей
Соотношение сторон : 2,25:1
Частота кадров : 25,000 кадров/сек
Цветовое пространство : YUV
Субдискретизация насыщенности : 4:2:0
Битовая глубина : 8 бит
Тип развёртки : Прогрессивная
Метод сжатия : С потерями
Бит/(Пиксели*Кадры) : 0.312
Размер потока : 695 Мбайт (93%)
Библиотека кодирования : XviD 73

Аудио
Идентификатор : 1
Формат : MPEG Audio
Версия формата : Version 1
Профиль формата : Layer 3
Идентификатор кодека : 55
Идентификатор кодека/Подсказка : MP3
Продолжительность : 53 м.
Вид битрейта : Переменный
Битрейт : 128 Кбит/сек
Каналы : 2 канала
Частота : 48,0 КГц
Метод сжатия : С потерями
Размер потока : 49,4 Мбайт (7%)
Выравнивание : Соединение по промежуткам
Продолжительность промежутка : 24 мс. (0,60 видеокадр)
Время предзагрузки промежутка : 486 мс.
Скриншоты:


* Исходные материалы на70 мм пленке находятся в Госфильмфонде РФ. Фильм оцифрован в разрешении 4К.
* Историю восстановления фильма можно прочитать здесь -
http://crimea.kz/113756-V-Sevastopole-voss...ore-v-ogne.html

В статье обращают на себя внимание некоторые странности насчёт реставрации и оцифровки.
В 2012-м у Госфильмофонда уже была новая установка, купленная ими в конце 2010 года специально для реставрации и оцифровки именно 70-мм плёнки. Они тогда это широко рекламировали на фестивале архивного кино "Белые столбы". Как раз "Первороссияне" были оцифрованы именно на ней. И уж совсем немыслимо, чтобы единственный экземпляр 70-мм плёнки фильма Госфильмофонд отдал на реставрацию какой-то фирме, да ещё и в формально украинский тогда Севастополь (!?). Если уж ГФФ с трудом приобрёл такую установку, то в появление подобного аппарата в некоей севастопольской фирме верится с трудом. Но возможно эта фирма, которая не раскрывается, находилась в другом регионе.
Кроме того, обычно пленка такого формата приобреталась за рубежом, следовательно, она была очень качественной. Однако при просмотре фильма, создаётся впечатление, что отреставрирована была какая-то другая плёнка, видимо, не очень качественная. Тем не менее нужно дождаться копии оцифрованного фильма на DVD. Тогда можно будет с уверенностью говорить о качестве реставрации фильма и его оцифровки.
Время раздачи: С 16:00 до 23:00
[NNM-Club.me]_More v ogne (2 serii) (1970) IPTVRip.torrent
 Торрент: Платиновая раздача  Зарегистрирован
 
Скачать


Примагнититься
 Зарегистрирован:   07 Окт 2014 20:03:59
 Размер:   1,44 GB  (
 Рейтинг:   4,3 (Голосов: 54)
 Поблагодарили:   155
 Проверка:   Оформление проверено модератором 07 Окт 2014 22:43:10
Как cкачать  ·  Как раздать  ·  Правильно оформить  ·  Поднять ратио!  
Загрузка...
OFENYA
Модератор Книг
RG Книги
Меценат
 
Стаж: 10 лет 6 мес.
Сообщений: 2130
Ratio: 27,334
Поблагодарили: 235754
100%
Откуда: из вагона
ussr.gif
Фильм оцифрован в разрешении 4К Что - то качество....:(

_________________
| Правила оформления в Книгах | Исправил релиз - напиши в ЛС
nnmclub0112 ®
Стаж: 7 лет 9 мес.
Сообщений: 3894
Ratio: 96,961
Поблагодарили: 249621
100%
OFENYA писал(а): Перейти к сообщению
Фильм оцифрован в разрешении 4К Что - то качество....:(

Фильм записан с канала "Звезда", доступ к другой версии оцифровки фильма отсутствует.
лежик
Стаж: 8 лет 3 мес.
Сообщений: 38
Ratio: 6,317
100%
russia.gif
OFENYA писал(а): Перейти к сообщению
Фильм оцифрован в разрешении 4К Что - то качество....:(

Да вы батенька много кушать.... в смысле зажрались. Спасибо за фильм огромнейшее... Искал везде, нигде нет.... Только на сомнительный платниках.
Показать сообщения:   
Начать новую тему   Ответить на тему    Торрент-трекер NNM-Club -> Классика кино и Старые фильмы до 90-х -> Старые Отечественные Фильмы (HD*Rip/LQ, DVDRip, SATRip, VHSRip) Часовой пояс: GMT + 3
Страница 1 из 1