Классический форум-трекер
canvas not supported
Нас вместе: 4 114 091

[EN] The Beatles: Вечер трудного дня / A Hard Day's Night (1964/2014) BDRemux [1080p]


 
 
RSS
Начать новую тему   Ответить на тему    Торрент-трекер NNM-Club -> Архив торрентов -> Архив Видео
Автор Сообщение
langust12 ®
Стаж: 5 лет 8 мес.
Сообщений: 1132
Ratio: 523,545
Поблагодарили: 67435
100%
russia.gif
[EN] The Beatles: Вечер трудного дня / A Hard Day's Night (1964/2014) BDRemux [1080p]
Производство: Великобритания
Год выпуска: 1964/2014
Жанр: Комедия, Музыкальный

Описание фильма:
Meet the Beatles! Just one month after they exploded onto the U.S. scene with their Ed Sullivan Show appearance, John, Paul, George, and Ringo began working on a project that would bring their revolutionary talent to the big screen. A Hard Day’s Night, in which the bandmates play slapstick versions of themselves, captured the astonishing moment when they officially became the singular, irreverent idols of their generation and changed music forever. Directed with raucous, anything-goes verve by Richard Lester and featuring a slew of iconic pop anthems, including the title track, “Can’t Buy Me Love,” “I Should Have Known Better,” and “If I Fell,” A Hard Day’s Night, which reconceived the movie musical and exerted an incalculable influence on the music video, is one of the most deliriously entertaining movies of all time

Режиссер: Ричард Лестер / Richard Lester
Актеры: Джон Леннон (John Lennon), Пол МакКартни (Paul McCartney), Джордж Хэррисон (George Harrison), Ринго Старр (Ringo Starr), Уилфред Брэмбелл (Wilfrid Brambell), Норман Россингтон (Norman Rossington)

Продолжительность: 01:27:39
Качество видео: BDRemux 1080p
Язык: Английский



Контейнер: mkv
Видеокодек: MPEG-4 AVC/H.264
Битрейт видео: ~22.7 Mbps (23.976 fps)
Размер кадра: 1920x1080 (16:9)
Аудио: DTS Core: 5.1 / 48 kHz / 1509 kbps / 24-bit
Объем данных на исходнике занимал около 45 Гб. Убраны все излишества (трейлеры, "допы"...) и все звуковые дорожки (моно, стерео...), кроме многоканальной. Основной видео файл сохранен в первоначальном качестве.
A HARD DAY’S NIGHT EN.mkv
General
UniqueID : 168235360692928522320804940400303172844 (0x7E90F3AED2902B65B61B773370AE6CEC)
Complete name : I:\Torrent_Download\A HARD DAY’S NIGHT EN.mkv
Format : Matroska
File size : 15.1 GiB
Duration : 1h 27mn
Overall bit rate : 24.7 Mbps
Writing application : Lavf55.7.100
Writing library : Lavf55.7.100
Video #1
ID : 1
Format : AVC
Format/Info : Advanced Video Codec
Format profile : High@L4.1
Format settings, CABAC : Yes
Format settings, ReFrames : 4 frames
Format settings, GOP : M=3, N=26
Codec ID : V_MPEG4/ISO/AVC
Duration : 1h 27mn
Bit rate mode : Variable
Bit rate : 22.7 Mbps
Maximum bit rate : 36.5 Mbps
Width : 1 920 pixels
Height : 1 080 pixels
Display aspect ratio : 16:9
Frame rate : 23.976 fps
Color space : YUV
Chroma subsampling : 4:2:0
Bit depth : 8 bits
Scan type : Progressive
Bits/(Pixel*Frame) : 0.457
Stream size : 13.9 GiB (92%)
Title : Main video
Language : English / un
Audio #2
ID : 2
Format : DTS
Format/Info : Digital Theater Systems
Codec ID : A_DTS
Duration : 1h 27mn
Bit rate mode : Constant
Bit rate : 1 510 Kbps
Channel(s) : 6 channels
Channel positions : Front: L C R, Side: L R, LFE
Sampling rate : 48.0 KHz
Bit depth : 24 bits
Compression mode : Lossy
Stream size : 947 MiB (6%)
Title : English
Language : English / English
Text #3
ID : 3
Format : PGS
Codec ID : S_HDMV/PGS
Codec ID/Info : The same subtitle format used on BDs/HD-DVDs
Title : English
Language : English / English
Скриншоты:


Время раздачи: до появления первых устойчивых сидов
[NNM-Club.me]_A HARD DAY’S NIGHT EN.mkv.torrent
 Торрент: Платиновая раздача  Зарегистрирован
 
Скачать


Примагнититься
 Зарегистрирован:   08 Окт 2014 06:05:27
 Размер:   15,1 GB  (
 Рейтинг:   4,2 (Голосов: 38)
 Поблагодарили:   75
 Проверка:   Оформление проверено модератором 10 Окт 2014 10:14:33
Как cкачать  ·  Как раздать  ·  Правильно оформить  ·  Поднять ратио!  
semenich2
Стаж: 9 лет 6 мес.
Сообщений: 698
Ratio: 2,918
93.26%
примитивная музыка, почему такая истерия вокруг них, рейтинг завышен
xAPMDEx
 
Стаж: 10 лет 4 мес.
Сообщений: 473
Ratio: 4,122
100%
pirates.png
semenich2
Мир перевернулся бы без вашего комментария.
Zaxy
Стаж: 10 лет 2 мес.
Сообщений: 42
Ratio: 5,795
Раздал: 16,77 TB
1.84%
Откуда: Москва
russia.gif
xAPMDEx
Музыка у них класс, хотя для многих эталон - Вставай проклятьем заклейменный . . .
ardatiev
Стаж: 8 лет 2 мес.
Сообщений: 639
Ratio: 2,455
100%
Откуда: Київ
ukraine.gif
Да... Мы все умрем, а Битлы, как и Моцарт, будут радовать своей светлой музыкой наших потомков! )
serfar
Лауреат КТ
 
Стаж: 10 лет 2 мес.
Сообщений: 892
Ratio: 2,813
24.25%
Откуда: 11ru
ussr.gif
semenich2 писал(а): Перейти к сообщению
примитивная музыка, почему такая истерия вокруг них, рейтинг завышен


Молекула воды состоит из двух атомов водорода и одного — кислорода.
Примитив.
да?
aurum74
Стаж: 8 лет 4 мес.
Сообщений: 34
Ratio: 30,731
100%
Откуда: Torino
italy.gif
semenich2

Если нечего сказать-лучше промолчи!
folo
Стаж: 9 лет 7 мес.
Сообщений: 18
Ratio: 7,859
6.43%
Откуда: Россия
russia.gif
В эпоху битломании кино было очень популярным.
Сейчас, конечно, видно что кино полный бред, но увидеть "вживую" четверку века все равно приятно.
MrH
Стаж: 7 лет 6 мес.
Сообщений: 1282
Ratio: 8384,479
100%
Отличный фильм, добрый и весёлый, давно его не видел, в юности у дяди на видике сто раз смотрел.. Надо места найти и скачать, хочу показать дяде-битломану, у него только на видаке есть а тут HD. Когда-то он меня на видики приглашал, а теперь я его на HD. Битлы простые но "Простота — высшая ступень искусства." (с) Брюс Ли :D
Chebyrek
Стаж: 6 лет 2 мес.
Сообщений: 11
Ratio: 3,341
0%
Цитата:
примитивная музыка, почему такая истерия вокруг них, рейтинг завышен
Отстаньте от человека, может он Арбакайте слушает.

Добавлено спустя 4 минуты 27 секунд:

Цитата:
примитивная музыка, почему такая истерия вокруг них, рейтинг завышен
Отстаньте от человека, может он Арбакайте слушает.
Топик был перенесен из форума Фильмы в оригинале (HD, UHD, UHD-LQ) в форум Архив Видео



Исправил релиз - напиши ЛС karfagen1975, дав ссылку на релиз.
Если нет ответа 24 часа - нажми на кнопку "Обратить внимание модераторов".
Показать сообщения:   
Начать новую тему   Ответить на тему    Торрент-трекер NNM-Club -> Архив торрентов -> Архив Видео Часовой пояс: GMT + 3
Страница 1 из 1