Классический форум-трекер
canvas not supported
Нас вместе: 4 114 092

The Beatles: Вечер трудного дня / A Hard Day's Night (1964) BDRip [1080i]


 
 
RSS
Начать новую тему   Ответить на тему    Торрент-трекер NNM-Club -> Театр и Музыкальное видео -> Опера, Балет, Мюзиклы
Автор Сообщение
langust12 ®
Стаж: 5 лет 8 мес.
Сообщений: 1132
Ratio: 523,545
Поблагодарили: 67435
100%
russia.gif
The Beatles: Вечер трудного дня / A Hard Day's Night (1964) BDRip [1080i]
Производство: Великобритания
Год выпуска: 1964/2014
Жанр: Мюзикл, Комедия

Описание фильма:
1964 год: начало битломании. Битлз дебютируют на американской сцене в шоу Эда Салливана. Режиссер Ричард Лестер делает первый фильм о группе, сняв его в жанре музыкальной комедии. "Вечер трудного дня" рассказывает фэнам группы об одном дне жизни Великой Четверки.

Режиссер: Ричард Лестер / Richard Lester
Актеры: Джон Леннон (John Lennon), Пол МакКартни (Paul McCartney), Джордж Хэррисон (George Harrison), Ринго Старр (Ringo Starr), Уилфред Брэмбелл (Wilfrid Brambell), Норман Россингтон (Norman Rossington)

Продолжительность: 01:27:39
Качество видео: BDRip 1080i
Перевод: Многоголосый закадровый, профессиональный



Видеокодек: MPEG-4 AVC/H.264
Битрейт видео: ~10.1 Mb/s
Размер кадра: 1920x1080 (16:9)
Аудио: AC3 5.1 / 48 kHz / 448 kbps / 24-bit / Русский
AHDNrus.m2ts
General #0
ID : 0 (0x0)
Complete name : I:\Torrent_Download\AHDNrus.m2ts
Format : BDAV
Format/Info : Advanced Video Codec
File size : 6.74 GiB
Duration : 1h 27mn
Overall bit rate : 11.0 Mbps
Maximum Overall bit rate : 48.0 Mbps
Video #4113
ID : 4113 (0x1011)
Menu ID : 1 (0x1)
Format : AVC
Format/Info : Advanced Video Codec
Format profile : High@L4.0
Format settings, CABAC : Yes
Format settings, ReFrames : 2 frames
Codec ID : 27
Duration : 1h 27mn
Bit rate mode : Variable
Bit rate : 10.1 Mbps
Maximum bit rate : 20.0 Mbps
Width : 1 920 pixels
Height : 1 080 pixels
Display aspect ratio : 16:9
Frame rate : 29.970 fps
Standard : NTSC
Color space : YUV
Chroma subsampling : 4:2:0
Bit depth : 8 bits
Scan type : Interlaced
Scan order : Top Field First
Bits/(Pixel*Frame) : 0.163
Stream size : 6.19 GiB (92%)
Color primaries : BT.709-5, BT.1361, IEC 61966-2-4, SMPTE RP177
Transfer characteristics : BT.709-5, BT.1361
Matrix coefficients : BT.709-5, BT.1361, IEC 61966-2-4 709, SMPTE RP177
Audio #4352
ID : 4352 (0x1100)
Menu ID : 1 (0x1)
Format : AC-3
Format/Info : Audio Coding 3
Mode extension : CM (complete main)
Codec ID : 129
Duration : 1h 27mn
Bit rate mode : Constant
Bit rate : 448 Kbps
Channel(s) : 6 channels
Channel positions : Front: L C R, Side: L R, LFE
Sampling rate : 48.0 KHz
Bit depth : 16 bits
Compression mode : Lossy
Stream size : 281 MiB (4%)
Скриншоты:


Время раздачи: До появления первых устойчивых сидов
[NNM-Club.me]_AHDNrus.m2ts.torrent
 Торрент: Платиновая раздача  Зарегистрирован
 
Скачать


Примагнититься
 Зарегистрирован:   08 Окт 2014 07:45:57
 Размер:   6,74 GB  (
 Рейтинг:   4,7 (Голосов: 25)
 Поблагодарили:   73
 Проверка:   Оформление проверено модератором 10 Окт 2014 10:14:13
Как cкачать  ·  Как раздать  ·  Правильно оформить  ·  Поднять ратио!  
martyr99
Стаж: 7 лет
Сообщений: 15
Ratio: 41,883
25%
Это же здесь был дедушка Пола?
langust12 ®
Стаж: 5 лет 8 мес.
Сообщений: 1132
Ratio: 523,545
Поблагодарили: 67435
100%
russia.gif
martyr99 писал(а): Перейти к сообщению
Это же здесь был дедушка Пола?

Да, только "другой дедушка"... :да: .
langust12 ®
Стаж: 5 лет 8 мес.
Сообщений: 1132
Ratio: 523,545
Поблагодарили: 67435
100%
russia.gif
Кстати, наиболее комичный персонаж в этой истории... .
langust12 ®
Стаж: 5 лет 8 мес.
Сообщений: 1132
Ratio: 523,545
Поблагодарили: 67435
100%
russia.gif
Здесь хорошо сочетаются высокое качество картинки и относительно небольшой размер рипа с блурея последнего выпуска.
langust12 ®
Стаж: 5 лет 8 мес.
Сообщений: 1132
Ratio: 523,545
Поблагодарили: 67435
100%
russia.gif
Рекомендую также раскрашенный мною вариант с переводом специально для этого выпуска, любезно предоставленного мне Максимом Жолобовым:
The Beatles: Вечер трудного дня / A Hard Day's Night (1964/2014) BDRip [720p] [hand made colored]
langust12 ®
Стаж: 5 лет 8 мес.
Сообщений: 1132
Ratio: 523,545
Поблагодарили: 67435
100%
russia.gif
Или со старой озвучкой, но в более высоком качестве для просмотра:
The Beatles: Вечер трудного дня / A Hard Day's Night (1964/2014) BDRip [720p] [hand made colored/59.94fps]
langust12 ®
Стаж: 5 лет 8 мес.
Сообщений: 1132
Ratio: 523,545
Поблагодарили: 67435
100%
russia.gif
А вообще то странно, что сняли фильм в черно-белом варианте. Тем более комедию. Даже у нас, в СССР, комедии обычно снимали на цветную пленку.
Показать сообщения:   
Начать новую тему   Ответить на тему    Торрент-трекер NNM-Club -> Театр и Музыкальное видео -> Опера, Балет, Мюзиклы Часовой пояс: GMT + 3
Страница 1 из 1