Классический форум-трекер
canvas not supported
Нас вместе: 4 077 128

Змей и радуга / The Serpent and the Rainbow (1988) BDRip


 
 
RSS
Начать новую тему   Ответить на тему    Торрент-трекер NNM-Club -> Классика кино и Старые фильмы до 90-х -> Старые Зарубежные Фильмы (HD*Rip/LQ, DVDRip, SATRip, VHSRip)
Автор Сообщение
Dreemmer ®
Стаж: 6 лет 6 мес.
Сообщений: 938
Ratio: 1429,269
Поблагодарили: 105337
100%
Змей и радуга / The Serpent and the Rainbow (1988) BDRip
« Don't bury me...I'm not dead! »

Год выпуска: 1988
Производство: США | Universal Pictures
Жанр: Ужасы, Фэнтези, Триллер

Описание фильма:
Эта картина основана на реальных событиях, происшедших с ученым Уэйдом Дэйвисом. Деннис Алан, антрополог из Гарвардского Университета, отправляется на родину черной магии Вуду — остров Гаити, чтобы найти место изготовления странного порошка. Местная легенда гласит, что порошок этот способен возвращать к жизни мертвецов. На острове Алану предстоит столкнуться со страшной наукой, история которой уходит в глубь веков, наукой, ниспровергающей все человеческие представления о жизни и смерти.

Режиссер: Уэс Крэйвен
Актеры: Билл Пуллман, Кэти Тайсон, Закес Мокае, Пол Уинфилд, Брент Дженнингс, Конрад Робертс, Баджа Джола, Тереза Меррит, Майкл Гоф, Пол Гилфойл

Продолжительность: 01:38:00
Качество видео: BDRip
Перевод: Профессиональный (многоголосый, закадровый) (R5)
Язык субтитров: Отсутствуют



Дата мировой премьеры: 5 февраля 1988
Дата выхода DVD релиза: 27 августа 2009, «Настроение Video»

Видео: 624x336 (1.85:1), 23.976 fps, XviD build 65 ~925 kbps avg, 0.184 bit/pixel
Аудио: 48 kHz, MPEG Layer 3, 2 ch, ~128.00 kbps avg
Сэмпл: Скачать
Код:
General
Complete name                  : D:\фильмы\Zmej.i.Raduga.1988.BDRip.avi
Format                         : AVI
Format/Info                    : Audio Video Interleave
File size                      : 745 MiB
Duration                       : 1h 38mn
Overall bit rate               : 1 062 Kbps
Movie name                     : The.Serpent.and.the.Rainbow.1988.BDRip.MVO.All.Films
Director                       : DIABLO93
Genre                          : Thriller
Writing application            : VirtualDubMod 1.5.10.3 | www.virtualdub-fr.org || (build 2550/release)
Original source form/Name      : Movie
Copyright                      :  .org (R.G. All Films)

Video
ID                             : 0
Format                         : MPEG-4 Visual
Format profile                 : Advanced Simple@L5
Format settings, BVOP          : Yes
Format settings, QPel          : No
Format settings, GMC           : No warppoints
Format settings, Matrix        : Custom
Codec ID                       : XVID
Codec ID/Hint                  : XviD
Duration                       : 1h 38mn
Bit rate                       : 925 Kbps
Width                          : 624 pixels
Height                         : 336 pixels
Display aspect ratio           : 1.85:1
Frame rate                     : 23.976 fps
Color space                    : YUV
Chroma subsampling             : 4:2:0
Bit depth                      : 8 bits
Scan type                      : Progressive
Compression mode               : Lossy
Bits/(Pixel*Frame)             : 0.184
Stream size                    : 649 MiB (87%)
Writing library                : XviD 65

Audio
ID                             : 1
Format                         : MPEG Audio
Format version                 : Version 1
Format profile                 : Layer 3
Mode                           : Joint stereo
Codec ID                       : 55
Codec ID/Hint                  : MP3
Duration                       : 1h 37mn
Bit rate mode                  : Constant
Bit rate                       : 128 Kbps
Channel(s)                     : 2 channels
Sampling rate                  : 48.0 KHz
Compression mode               : Lossy
Stream size                    : 89.6 MiB (12%)
Alignment                      : Aligned on interleaves
Interleave, duration           : 42 ms (1.00 video frame)
Interleave, preload duration   : 504 ms
Скриншоты:


Время раздачи: 10:00 - 24.00
[NNM-Club.me]_Zmej.i.Raduga.1988.BDRip.avi.torrent
 Торрент: Платиновая раздача  Зарегистрирован
 
Скачать


Примагнититься
 Зарегистрирован:   16 Окт 2014 05:51:16
 Размер:   745 MB  (
 Рейтинг:   4,6 (Голосов: 29)
 Поблагодарили:   89
 Проверка:   Оформление проверено модератором 16 Окт 2014 23:29:33
Как cкачать  ·  Как раздать  ·  Правильно оформить  ·  Поднять ратио!  
oleg-lotus
Стаж: 8 лет 9 мес.
Сообщений: 547
Ratio: 2,716
100%
Откуда: Odessa
ukraine.gif
Лучший фильм ужасов!
nurik63
Стаж: 8 лет 1 мес.
Сообщений: 301
Ratio: 29,891
100%
ussr.gif
Жанр: Ужасы, Фэнтези, Триллер
Эта картина основана на реальных событиях, происшедших с ученым Уэйдом Дэйвисом .......
:задумался: :смех:
Devel87
Стаж: 6 лет
Сообщений: 1278
Ratio: 45,153
100%
vietnam.gif
oleg-lotus
Благодарю за рекомендацию,коллега.Раз так,то тоже ка гляну это кино.Благодарю за релиз
Топик был перенесен из форума Грайндхаус в форум Старые Зарубежные Фильмы (HD*Rip/LQ, DVDRip, SATRip, VHSRip)



Исправил релиз - напиши ЛС MAG3131, дав ссылку на релиз.
Если нет ответа 24 часа - нажми на кнопку "Обратить внимание модераторов".
Показать сообщения:   
Начать новую тему   Ответить на тему    Торрент-трекер NNM-Club -> Классика кино и Старые фильмы до 90-х -> Старые Зарубежные Фильмы (HD*Rip/LQ, DVDRip, SATRip, VHSRip) Часовой пояс: GMT + 3
Страница 1 из 1