Классический форум-трекер
canvas not supported
Нас вместе: 4 079 234

Касл / Castle (2013) WEB-DLRip (6-й сезон, серии 1-23 (23)) (ТВ-3)


 
 
RSS
Начать новую тему   Ответить на тему    Торрент-трекер NNM-Club -> Зарубежные сериалы -> Касл / Castle
Автор Сообщение
WOLF 80 ®
Uploader 100+
Стаж: 10 лет 2 мес.
Сообщений: 480
Ratio: 3902,785
Раздал: 156,9 TB
Поблагодарили: 30373
100%
Откуда: Санкт-Петербург
russia.gif
Касл / Castle (2013 - 2014) WEB-DLRip
(6-й сезон, серии 1-23 (23)) (ТВ-3)

«A whole new chapter in crime solving.»

Русское название: Касл
Оригинальное название: Castle
Год выпуска: 2013 - 2014
Жанр: Детектив, Комедия, Драма

Перевод: Профессиональный (полное дублирование) - канал ТВ3



Дата мировой премьеры: с 23.09.2013 по 12.05.2014

Режиссер: Роб Боумен, Джон Терлески, Брайан Спайсер

Актеры: Нэйтан Филлион, Стана Катич, Джон Уэртас, Молли С. Куинн, Шимус Девер, Сьюзэн Салливан, Тамала Джонс, Рубен Сантьяго-Хадсон, Пенни Джонсон, Ари Гросс

Роли дублировали: Сергей Набиев, Вероника Саркисова, Олег Куценко, Андрей Бархударов

Описание фильма: Знакомьтесь, Ричард Касл — успешный писатель детективного жанра, который в последней книге убил своего главного героя. Но кажется, что одному из почитателей его таланта книги понравились слегка чересчур — в городе появляется подражатель, совершающий преступления, с убийственной точностью копируя способы, которыми Касл убивал в своих произведениях. И вот наш изнывающий от скуки писатель был вызван в отдел убийств Нью-йоркской полиции, чтобы помочь найти убийцу.
Общее
Полное имя : H:\MY UPLOAD\Касл. Сезон 6\6x01 - Valkyrie (Валькирия).avi
Формат : AVI
Формат/Информация : Audio Video Interleave
Размер файла : 551 Мбайт
Продолжительность : 42 м.
Общий поток : 1820 Кбит/сек
Название фильма : Касл. Сезон 6 / Castle. Season (2013)
Программа кодирования : VirtualDubMod 1.5.10.2 (build 2540/release)
Библиотека кодирования : VirtualDubMod build 2540/release
Правообладатель : miha2154

Видео
Идентификатор : 0
Формат : MPEG-4 Visual
Профиль формата : Advanced Simple@L5
Параметр BVOP формата : 1
Параметр QPel формата : Нет
Параметр GMC формата : Без точки перехода
Параметр матрицы формата : Выборочная
Идентификатор кодека : DX50
Идентификатор кодека/Подсказка : DivX 5
Продолжительность : 42 м.
Битрейт : 1422 Кбит/сек
Ширина : 720 пикселей
Высота : 400 пикселей
Соотношение сторон : 16:9
Частота кадров : 23,976 кадра/сек
Цветовое пространство : YUV
Субдискретизация насыщенности : 4:2:0
Битовая глубина : 8 бит
Тип развёртки : Прогрессивная
Метод сжатия : С потерями
Бит/(Пиксели*Кадры) : 0.206
Размер потока : 430 Мбайт (78%)
Библиотека кодирования : XviD 65

Аудио #1
Идентификатор : 1
Формат : AC-3
Формат/Информация : Audio Coding 3
Расширение режима : CM (complete main)
Параметр Endianness формата : Big
Идентификатор кодека : 2000
Продолжительность : 42 м.
Вид битрейта : Постоянный
Битрейт : 192 Кбит/сек
Каналы : 2 канала
Расположение каналов : Front: L R
Частота : 48,0 КГц
Битовая глубина : 16 бит
Метод сжатия : С потерями
Размер потока : 58,1 Мбайт (11%)
Выравнивание : Разделение по промежуткам
Продолжительность промежутка : 42 мс. (1,00 видеокадр)
Время предзагрузки промежутка : 500 мс.
Заголовок : Профессиональный (полное дублирование) ТВ3

Аудио #2
Идентификатор : 2
Формат : AC-3
Формат/Информация : Audio Coding 3
Расширение режима : CM (complete main)
Параметр Endianness формата : Big
Идентификатор кодека : 2000
Продолжительность : 42 м.
Вид битрейта : Постоянный
Битрейт : 192 Кбит/сек
Каналы : 2 канала
Расположение каналов : Front: L R
Частота : 48,0 КГц
Битовая глубина : 16 бит
Метод сжатия : С потерями
Размер потока : 58,1 Мбайт (11%)
Выравнивание : Разделение по промежуткам
Продолжительность промежутка : 42 мс. (1,00 видеокадр)
Время предзагрузки промежутка : 500 мс.
Заголовок : Английский

01. Валькирия / Valkyrie
02. Мир грёз / Dreamworld
03. Нужно знать / Need to Know
04. Фанат номер один / Number One Fan
05. Время покажет / Time Will Tell
06. Ключ к разгадке / Get a Clue
07. Каков отец, такова и дочь / Like Father Like Daughter
08. Убийство - это навсегда / A Murder is Forever
09. Последователь / Disciple
10. Хороший, плохой и малыш / The Good, The Bad and The Baby
11. В огне / Under Fire
12. Глубокое прикрытие / Deep Cover
13. В центре внимания / Limelight
14. Убийственно одета / Dressed to Kill
15. Повеяло юностью / Smells Like Teen Spirit
16. Комната 147 / Room 147
17. В логове зверя / In the Belly of the Beast
18. Путь ниндзя / The Way of the Ninja
19. Ради общего блага / The Greater Good
20. Шоу 70-х / That '70s Show
21. Закон и граница / Law & Boarder
22. Истина / Veritas
23. В горе и в радости / For Better or Worse

miha2154- за звук

Продолжительность: ~00:43:00 серия
Качество видео: WEB-DLRip
Формат: Avi
Видеокодек: DivX 5
Битрейт видео: ~1400 Кбит/сек
Размер кадра: 720x400 (16:9), 23,976 fps
Аудиокодек: AC3
Битрейт аудио:
аудио rus: AC-3 at 192 Kbps 2 channels, 48.0 KHz, дубляж ТВ-3
аудио eng: AC-3 at 192 Kbps 2 channels, 48.0 KHz, оригинальная дорожка
КАСЛ/CASTLE все раздачи сериала

Скриншоты:

Время Раздачи: 24/7 - круглосуточно
[NNM-Club.me]_Castle s06 400 TV3.torrent
 Торрент: Платиновая раздача  Зарегистрирован
 
Скачать


Примагнититься
 Зарегистрирован:   26 Окт 2014 20:27:01
 Размер:   12,4 GB  (
 Рейтинг:   4,8 (Голосов: 55)
 Поблагодарили:   202
 Проверка:   Оформление проверено модератором 28 Окт 2014 04:10:03
Как cкачать  ·  Как раздать  ·  Правильно оформить  ·  Поднять ратио!  

_________________
На первом месте у меня семья и дети, а хобби =>Мои РЕЛИЗЫ <= в свободное от них время
cypress_59
Стаж: 11 лет 1 мес.
Сообщений: 34
Ratio: 5,874
Раздал: 11,89 TB
100%
ukraine.gif
Наконец-то в нормальной озвучке. Спасибо.
nikitich1502
Стаж: 6 лет 10 мес.
Сообщений: 6
Ratio: 31,371
100%
УРАААААААААААААААААА! Спасибо большое!!!
WasserAn777
Стаж: 4 года 7 мес.
Сообщений: 1
Ratio: 14,555
100%
russia.gif
Ууууух! Спасибо за озвучку! Долго же я искал эту раздачу!)
Hriuntik
Стаж: 3 года 9 мес.
Сообщений: 1
Ratio: 3,081
0%
спасибо, а за тв 3 -ыщё раз спасибо
Показать сообщения:   
Начать новую тему   Ответить на тему    Торрент-трекер NNM-Club -> Зарубежные сериалы -> Касл / Castle Часовой пояс: GMT + 3
Страница 1 из 1