Классический форум-трекер
canvas not supported
Нас вместе: 4 081 502

InternetUrok| Учёные - детям (2013) WEB-DLRip [H.264]


 
 
RSS
Начать новую тему   Ответить на тему    Торрент-трекер NNM-Club -> Видео -> Развивающее Видео для детей
Автор Сообщение
FedExe ®
Uploader 300+
Стаж: 9 лет 5 мес.
Сообщений: 9667
Ratio: 382,976
Поблагодарили: 927234
100%
Откуда: LoX - living off experien
InternetUrok| Учёные - детям (2013) WEB-DLRip
Год выпуска: 2013
Жанр: Видеоуроки, Обучающий, Развивающий
Вид субтитров: Отсутствуют
Режиссер: InternetUrok
Участники: Все уроки проводят заслуженные учителя России и учителя высших категорий.

Описание фильма:
Занимательные видеолекции от сайта interneturok.ru
Видеоуроки по школьной программе от опытных учителей Санкт-Петербурга и Москвы.
Ученикам - Посмотри видеоурок, чтобы лучше разобраться в теме или наверстать упущенное!
Учителям - Посетите открытый урок опытного коллеги или используйте видео как дополнительный материал
Директорам - Помогите учителю, заменяющему коллегу во время болезни или при отсутствии педагога

Продолжительность: 10:06:15
Качество видео: WEB-DLRip

Видеокодек: MPEG-4 AVC/H.264
Битрейт видео: ~700 Kbps
Размер кадра: 854х480
Аудиокодек: AAC, 2ch
Битрейт аудио: 96.0 Kbps
Аккреция в астрофизике
Водородная энергетика – энергия будущего
Вся астрофизика за час
Звёзды обитаемых экзопланет
Игрушечная физика
Молекулярное разнообразие жизни на Земле
Нейронауки в современном мире
Нейроэкономика экономика людей и зверей
Параметры в центре Солнца
Тяготы невесомости
Удивительный микромир холодных морей
У каждого дела запах особый
Физика в медицине
Что в старину использовали вместо обоев и как развлекались без телевизора.mp4
Что могут нанотехнологии.
General
Complete name : Аккреция в астрофизике.mp4
Format : MPEG-4
Format profile : Base Media
Codec ID : isom
File size : 161 MiB
Duration : 28mn 6s
Overall bit rate : 803 Kbps
Encoded date : UTC 2014-06-22 12:15:06
Tagged date : UTC 2014-06-22 12:15:06

Video
ID : 1
Format : AVC
Format/Info : Advanced Video Codec
Format profile : High@L3.0
Format settings, CABAC : Yes
Format settings, ReFrames : 5 frames
Format settings, GOP : M=4, N=25
Codec ID : avc1
Codec ID/Info : Advanced Video Coding
Duration : 28mn 6s
Bit rate mode : Variable
Bit rate : 700 Kbps
Maximum bit rate : 1 570 Kbps
Width : 854 pixels
Height : 480 pixels
Display aspect ratio : 16:9
Original display aspect ratio : 16:9
Frame rate mode : Constant
Frame rate : 25.000 fps
Color space : YUV
Chroma subsampling : 4:2:0
Bit depth : 8 bits
Scan type : Progressive
Bits/(Pixel*Frame) : 0.068
Stream size : 141 MiB (87%)
Writing library : x264 core 120 r2146 bcd41db
Encoding settings : cabac=1 / ref=5 / deblock=1:0:0 / analyse=0x3:0x133 / me=hex / subme=7 / psy=0 / mixed_ref=1 / me_range=16 / chroma_me=1 / trellis=1 / 8x8dct=1 / cqm=0 / deadzone=21,11 / fast_pskip=0 / chroma_qp_offset=0 / threads=4 / sliced_threads=0 / nr=0 / decimate=1 / interlaced=0 / bluray_compat=0 / constrained_intra=0 / bframes=3 / b_pyramid=2 / b_adapt=1 / b_bias=0 / direct=1 / weightb=1 / open_gop=0 / weightp=2 / keyint=25 / keyint_min=13 / scenecut=40 / intra_refresh=0 / rc=2pass / mbtree=0 / bitrate=700 / ratetol=1.0 / qcomp=0.60 / qpmin=10 / qpmax=51 / qpstep=4 / cplxblur=20.0 / qblur=0.5 / ip_ratio=1.40 / pb_ratio=1.30 / aq=1:1.00
Language : English
Encoded date : UTC 2014-06-23 05:14:22
Tagged date : UTC 2014-06-22 12:15:08

Audio
ID : 2
Format : AAC
Format/Info : Advanced Audio Codec
Format profile : LC
Codec ID : 40
Duration : 28mn 6s
Bit rate mode : Variable
Bit rate : 96.0 Kbps
Maximum bit rate : 115 Kbps
Channel(s) : 2 channels
Channel positions : Front: L R
Sampling rate : 44.1 KHz
Compression mode : Lossy
Stream size : 19.6 MiB (12%)
Language : English
Encoded date : UTC 2014-06-22 12:15:07
Tagged date : UTC 2014-06-22 12:15:08
Скриншоты:


Все видеоуроки от InternetUrok на NNM-Club.me


Время раздачи: 24/7 (круглосуточно) - до 5 скачавших, далее по возможности.
[NNM-Club.me]_InternetUrok Uchenyie - detyam (2013) WEB-DLRip.torrent
 Торрент: Платиновая раздача  Зарегистрирован
 
Скачать


Примагнититься
 Зарегистрирован:   26 Окт 2014 20:27:09
 Размер:   3,38 GB  (
 Рейтинг:   4,9 (Голосов: 27)
 Поблагодарили:   78
 Проверка:   Оформление проверено модератором 30 Окт 2014 06:08:58
Как cкачать  ·  Как раздать  ·  Правильно оформить  ·  Поднять ратио!  

_________________

Ну и конечно, данный материал выложен исключительно для ознакомления. После просмотра Вы обязаны удалить все файлы, отформатировать жесткий диск, разбить его молотком, облить кислотой и сжечь остатки в микроволновке.
kkksss1984
Стаж: 4 года 10 мес.
Сообщений: 1022
Ratio: 5,459
100%
pirates.png
FedExe
а подобные курсы есть, НО новейшие? 2017-19 года?

_________________
Показать сообщения:   
Начать новую тему   Ответить на тему    Торрент-трекер NNM-Club -> Видео -> Развивающее Видео для детей Часовой пояс: GMT + 3
Страница 1 из 1