Классический форум-трекер
canvas not supported
Нас вместе: 4 082 374

Касл / Castle (2013) WEB-DL [H.264/1080p-LQ] (6-й сезон, серии 1-23 (23)) (ТВ-3)


 
 
RSS
Начать новую тему   Ответить на тему    Торрент-трекер NNM-Club -> Зарубежные сериалы -> Касл / Castle
Автор Сообщение
WOLF 80 ®
Uploader 100+
Стаж: 10 лет 3 мес.
Сообщений: 480
Ratio: 3902,785
Раздал: 156,9 TB
Поблагодарили: 30461
100%
Откуда: Санкт-Петербург
russia.gif
Касл / Castle (2013 - 2014) WEB-DL [H.264/1080p-LQ]
(6-й сезон, серии 1-23 (23)) (ТВ-3)

«A whole new chapter in crime solving.»

Русское название: Касл
Оригинальное название: Castle
Год выпуска: 2013 - 2014
Жанр: Детектив, Комедия, Драма

Перевод: Профессиональный (полное дублирование) - канал ТВ3

СЭМПЛ

Дата мировой премьеры: с 23.09.2013 по 12.05.2014

Режиссер: Роб Боумен, Джон Терлески, Брайан Спайсер

Актеры: Нэйтан Филлион, Стана Катич, Джон Уэртас, Молли С. Куинн, Шимус Девер, Сьюзэн Салливан, Тамала Джонс, Рубен Сантьяго-Хадсон, Пенни Джонсон, Ари Гросс

Роли дублировали: Сергей Набиев, Вероника Саркисова, Олег Куценко, Андрей Бархударов

Описание фильма: Знакомьтесь, Ричард Касл — успешный писатель детективного жанра, который в последней книге убил своего главного героя. Но кажется, что одному из почитателей его таланта книги понравились слегка чересчур — в городе появляется подражатель, совершающий преступления, с убийственной точностью копируя способы, которыми Касл убивал в своих произведениях. И вот наш изнывающий от скуки писатель был вызван в отдел убийств Нью-йоркской полиции, чтобы помочь найти убийцу.
Общее
Уникальный идентификатор : 185269628330420798503721264940359632815 (0x8B61A1EB6F653F00A6ECDF845F5047AF)
Полное имя : H:\MY UPLOAD\Castle\Castle s06 1080 TV3\6x01 - Valkyrie (Валькирия).mkv
Формат : Matroska
Версия формата : Version 4 / Version 2
Размер файла : 1,68 Гбайт
Продолжительность : 42 м.
Общий поток : 5686 Кбит/сек
Название фильма : 6x01 - Valkyrie (Валькирия)
Дата кодирования : UTC 2014-10-27 11:46:08
Программа кодирования : mkvmerge v6.3.0 ('You can't stop me!') built on Jul 19 2013 16:27:38
Библиотека кодирования : libebml v1.3.0 + libmatroska v1.4.1

Видео
Идентификатор : 1
Формат : AVC
Формат/Информация : Advanced Video Codec
Профиль формата : High@L4.0
Параметр CABAC формата : Да
Параметр ReFrames формата : 4 кадра
Идентификатор кодека : V_MPEG4/ISO/AVC
Продолжительность : 42 м.
Битрейт : 4997 Кбит/сек
Ширина : 1920 пикселей
Высота : 1080 пикселей
Соотношение сторон : 16:9
Режим частоты кадров : Постоянный
Частота кадров : 23,976 кадра/сек
Цветовое пространство : YUV
Субдискретизация насыщенности : 4:2:0
Битовая глубина : 8 бит
Тип развёртки : Прогрессивная
Бит/(Пиксели*Кадры) : 0.101
Размер потока : 1,48 Гбайт (88%)
Заголовок : 6x01 - Valkyrie (Валькирия)
Язык : English
Default : Да
Forced : Нет
Основные цвета : BT.709
Характеристики трансфера : BT.709
Коэффициенты матрицы : BT.709

Аудио #1
Идентификатор : 2
Формат : AC-3
Формат/Информация : Audio Coding 3
Расширение режима : CM (complete main)
Параметр Endianness формата : Big
Идентификатор кодека : A_AC3
Продолжительность : 42 м.
Вид битрейта : Постоянный
Битрейт : 192 Кбит/сек
Каналы : 2 канала
Расположение каналов : Front: L R
Частота : 48,0 КГц
Битовая глубина : 16 бит
Метод сжатия : С потерями
Размер потока : 58,1 Мбайт (3%)
Заголовок : Dub TV-3
Язык : Russian
Default : Да
Forced : Да

Аудио #2
Идентификатор : 3
Формат : AC-3
Формат/Информация : Audio Coding 3
Расширение режима : CM (complete main)
Параметр Endianness формата : Big
Идентификатор кодека : A_AC3
Продолжительность : 42 м.
Вид битрейта : Постоянный
Битрейт : 384 Кбит/сек
Каналы : 6 каналов
Расположение каналов : Front: L C R, Side: L R, LFE
Частота : 48,0 КГц
Битовая глубина : 16 бит
Метод сжатия : С потерями
Размер потока : 116 Мбайт (7%)
Заголовок : Eng DD5.1
Язык : English
Default : Нет
Forced : Нет

01. Валькирия / Valkyrie
02. Мир грёз / Dreamworld
03. Нужно знать / Need to Know
04. Фанат номер один / Number One Fan
05. Время покажет / Time Will Tell
06. Ключ к разгадке / Get a Clue
07. Каков отец, такова и дочь / Like Father Like Daughter
08. Убийство - это навсегда / A Murder is Forever
09. Последователь / Disciple
10. Хороший, плохой и малыш / The Good, The Bad and The Baby
11. В огне / Under Fire
12. Глубокое прикрытие / Deep Cover
13. В центре внимания / Limelight
14. Убийственно одета / Dressed to Kill
15. Повеяло юностью / Smells Like Teen Spirit
16. Комната 147 / Room 147
17. В логове зверя / In the Belly of the Beast
18. Путь ниндзя / The Way of the Ninja
19. Ради общего блага / The Greater Good
20. Шоу 70-х / That '70s Show
21. Закон и граница / Law & Boarder
22. Истина / Veritas
23. В горе и в радости / For Better or Worse

miha2154- за звук

Продолжительность: ~00:43:00 серия
Качество видео: WEB-DL 1080p
Формат: MKV
Видеокодек: MPEG-4 AVC
Битрейт видео: ~4900 Кбит/сек
Размер кадра: 1920x1080 (16:9), 23,976 fps
Аудиокодек: AC3
Битрейт аудио:
аудио rus: AC-3 at 192 Kbps 2 channels, 48.0 KHz, дубляж ТВ-3
аудио eng: AC-3 at 384 Kbps 6 channels, 48.0 KHz, оригинальная дорожка
КАСЛ/CASTLE все раздачи сериала

Скриншоты:

Время Раздачи: 24/7 - круглосуточно
[NNM-Club.me]_Castle s06 1080 TV3.torrent
 Торрент: Платиновая раздача  Зарегистрирован
 
Скачать


Примагнититься
 Зарегистрирован:   26 Окт 2014 20:28:35
 Размер:   38,4 GB  (
 Рейтинг:   4,8 (Голосов: 23)
 Поблагодарили:   76
 Проверка:   Оформление проверено модератором 28 Окт 2014 04:13:26
Как cкачать  ·  Как раздать  ·  Правильно оформить  ·  Поднять ратио!  

_________________
На первом месте у меня семья и дети, а хобби =>Мои РЕЛИЗЫ <= в свободное от них время
Alphabot
 
Стаж: 6 лет 4 мес.
Сообщений: 4
Ratio: 481,602
100%
russia.gif
Релизеру огромное спасибо за проделанную работу!!! :цветок:
tigrgod
Стаж: 8 лет 9 мес.
Сообщений: 1
Ratio: 7,242
1.02%
Большое спасибо! Везде искал и только тут нашел. Так держать.
efebas
Стаж: 5 лет 9 мес.
Сообщений: 24
Ratio: 5,963
6.85%
молодцы;)
kia87
Стаж: 8 лет 4 мес.
Сообщений: 26
Ratio: 0,948
2.45%
Странно, почему мало раздающих...
Alphabot
 
Стаж: 6 лет 4 мес.
Сообщений: 4
Ratio: 481,602
100%
russia.gif
В последней серии где-то с половины нет звука
Показать сообщения:   
Начать новую тему   Ответить на тему    Торрент-трекер NNM-Club -> Зарубежные сериалы -> Касл / Castle Часовой пояс: GMT + 3
Страница 1 из 1