Классический форум-трекер
canvas not supported
Нас вместе: 4 079 428

Mentallo And The Fixer - Zothera (2014) Alfa Matrix [|FLAC|tracks+.cue|Lossless]<EBM, Industrial>


 
 
RSS
Начать новую тему   Ответить на тему    Торрент-трекер NNM-Club -> Electronic -> Experimental, Industrial, EBM, Dark Electro (Lossless)
Автор Сообщение
vilator ®
Модератор Музыки
RG Music
 
Стаж: 10 лет 6 мес.
Сообщений: 9469
Ratio: 178,454
Поблагодарили: 192062
100%
Откуда: Minsk
pirates.png
Mentallø And The Fixer Zothera

Жанр: EBM, Industrial • Страна: Belgium • Год издания: 2014 • Лейбл: Alfa Matrix - AM1210TCD
Аудиокодек: FLAC (*.flac) • Тип рипа: tracks+.cue • Битрейт аудио: lossless • Продолжительность: 03:45:36
Треклист:
Продолжительность: 01:16:19
Треклист:

01. Ancient Languages (06:48)
02. Legion Of Lepers (09:15)
03. Fusion Mutation (06:45)
04. Pulse Hemorrhage [Lesionary Mix] (09:40)
05. Rapid Suffocation (05:52)
06. Amplitude Interference (07:37)
07. Inhumanities (05:00)
08. Cerebral Static Overdose (04:29)
09. Soaked With Blood [T.H.C. Edit] (03:27)
10. Grim Reality (08:19)
11. Scum Of The Earth [Bloody] (03:29)
12. Bleek Seclusion (01:17)
13. Decomposed [Grimpen Ward Remix] (04:21)
Код: выделить все

Exact Audio Copy V1.0 beta 3 from 29. August 2011

EAC extraction logfile from 10. November 2014, 11:40

Mentallo and the Fixer / Revelations 23 [Zothera CD 1]

Used drive  : ATAPI   iHAS124   Y   Adapter: 3  ID: 1

Read mode               : Secure
Utilize accurate stream : Yes
Defeat audio cache      : Yes
Make use of C2 pointers : No

Read offset correction                      : 48
Overread into Lead-In and Lead-Out          : No
Fill up missing offset samples with silence : Yes
Delete leading and trailing silent blocks   : No
Null samples used in CRC calculations       : Yes
Used interface                              : Native Win32 interface for Win NT & 2000
Gap handling                                : Appended to next track

Used output format              : User Defined Encoder
Selected bitrate                : 768 kBit/s
Quality                         : High
Add ID3 tag                     : No
Command line compressor         : C:\Program Files\Exact Audio Copy\Flac\flac.exe
Additional command line options : -V -8 -T "Date=%year%" -T "Genre=%genre%" %source%

TOC of the extracted CD

     Track |   Start  |  Length  | Start sector | End sector
    ---------------------------------------------------------
        1  |  0:00.00 |  6:48.21 |         0    |    30620
        2  |  6:48.21 |  9:14.58 |     30621    |    72228
        3  | 16:03.04 |  6:44.64 |     72229    |   102592
        4  | 22:47.68 |  9:39.64 |    102593    |   146081
        5  | 32:27.57 |  5:52.06 |    146082    |   172487
        6  | 38:19.63 |  7:37.07 |    172488    |   206769
        7  | 45:56.70 |  4:59.59 |    206770    |   229253
        8  | 50:56.54 |  4:28.73 |    229254    |   249426
        9  | 55:25.52 |  3:26.58 |    249427    |   264934
       10  | 58:52.35 |  8:18.51 |    264935    |   302335
       11  | 67:11.11 |  3:29.15 |    302336    |   318025
       12  | 70:40.26 |  1:16.39 |    318026    |   323764
       13  | 71:56.65 |  4:21.26 |    323765    |   343365

Track  1

     Filename C:\Program Files\Exact Audio Copy\Flac\Новая папка\101 Ancient Languages.wav

     Pre-gap length  0:00:02.00

     Peak level 99.9 %
     Extraction speed 2.7 X
     Track quality 100.0 %
     Test CRC F6B38DCD
     Copy CRC F6B38DCD
     Copy OK

Track  2

     Filename C:\Program Files\Exact Audio Copy\Flac\Новая папка\102 Legion Of Lepers.wav

     Peak level 99.9 %
     Extraction speed 3.0 X
     Track quality 99.9 %
     Test CRC A6D99F2B
     Copy CRC A6D99F2B
     Copy OK

Track  3

     Filename C:\Program Files\Exact Audio Copy\Flac\Новая папка\103 Fusion Mutation.wav

     Peak level 99.9 %
     Extraction speed 3.6 X
     Track quality 100.0 %
     Test CRC C4BB9480
     Copy CRC C4BB9480
     Copy OK

Track  4

     Filename C:\Program Files\Exact Audio Copy\Flac\Новая папка\104 Pulse Hemorrhage [Lessionary Mix].wav

     Peak level 99.9 %
     Extraction speed 4.0 X
     Track quality 100.0 %
     Test CRC 6BB466E6
     Copy CRC 6BB466E6
     Copy OK

Track  5

     Filename C:\Program Files\Exact Audio Copy\Flac\Новая папка\105 Rapid Suffocation.wav

     Peak level 99.9 %
     Extraction speed 4.3 X
     Track quality 100.0 %
     Test CRC C8053734
     Copy CRC C8053734
     Copy OK

Track  6

     Filename C:\Program Files\Exact Audio Copy\Flac\Новая папка\106 Amplitude Interference.wav

     Peak level 99.9 %
     Extraction speed 4.6 X
     Track quality 100.0 %
     Test CRC 03D528E0
     Copy CRC 03D528E0
     Copy OK

Track  7

     Filename C:\Program Files\Exact Audio Copy\Flac\Новая папка\107 Inhumanities.wav

     Peak level 99.9 %
     Extraction speed 4.2 X
     Track quality 99.9 %
     Test CRC AF162A13
     Copy CRC AF162A13
     Copy OK

Track  8

     Filename C:\Program Files\Exact Audio Copy\Flac\Новая папка\108 Cerebral Static Overdose.wav

     Peak level 99.9 %
     Extraction speed 4.8 X
     Track quality 100.0 %
     Test CRC BD8FA97D
     Copy CRC BD8FA97D
     Copy OK

Track  9

     Filename C:\Program Files\Exact Audio Copy\Flac\Новая папка\109 Soaked With Blood [T.H.C. Edit].wav

     Peak level 99.9 %
     Extraction speed 4.6 X
     Track quality 100.0 %
     Test CRC 72CAADFF
     Copy CRC 72CAADFF
     Copy OK

Track 10

     Filename C:\Program Files\Exact Audio Copy\Flac\Новая папка\110 Grim Reality.wav

     Peak level 99.9 %
     Extraction speed 5.4 X
     Track quality 100.0 %
     Test CRC 4359F421
     Copy CRC 4359F421
     Copy OK

Track 11

     Filename C:\Program Files\Exact Audio Copy\Flac\Новая папка\111 Scum Of The Earth [Bloody].wav

     Peak level 99.9 %
     Extraction speed 5.1 X
     Track quality 100.0 %
     Test CRC CD7E5B34
     Copy CRC CD7E5B34
     Copy OK

Track 12

     Filename C:\Program Files\Exact Audio Copy\Flac\Новая папка\112 Bleek Seclusion.wav

     Peak level 95.2 %
     Extraction speed 4.1 X
     Track quality 100.0 %
     Test CRC 119F8144
     Copy CRC 119F8144
     Copy OK

Track 13

     Filename C:\Program Files\Exact Audio Copy\Flac\Новая папка\113 Decomposed [Grimpen Ward Remix].wav

     Peak level 99.9 %
     Extraction speed 5.4 X
     Track quality 100.0 %
     Test CRC 45571D69
     Copy CRC 45571D69
     Copy OK

No errors occurred

End of status report

==== Log checksum 020C5E367277D142B8AA92250A4CDE8D4B190A1928612012D8705D15BC83CBBC ====

Продолжительность: 01:15:47
Треклист:

01. Gargantua (02:31)
02. Decomposed [Trampled] (06:31)
03. Sacrilege (04:08)
04. Bring To A Boil (09:27)
05. Virtually Hopeless (04:44)
06. Coward [Submerged] (06:16)
07. Ruthless (05:39)
08. Afterglow (06:28)
09. Battered States Of Euphoria (05:58)
10. Abominations Unleashed (04:46)
11. Dead Days (04:29)
12. Atom Smasher (06:17)
13. Power Struggle (02:48)
14. Sacrilege [Grimpen Ward] (05:45)
Код: выделить все

Exact Audio Copy V1.0 beta 3 from 29. August 2011

EAC extraction logfile from 10. November 2014, 12:32

Mentallo and the Fixer / Where Angels Fear To Tread

Used drive  : ATAPI   iHAS124   Y   Adapter: 3  ID: 1

Read mode               : Secure
Utilize accurate stream : Yes
Defeat audio cache      : Yes
Make use of C2 pointers : No

Read offset correction                      : 48
Overread into Lead-In and Lead-Out          : No
Fill up missing offset samples with silence : Yes
Delete leading and trailing silent blocks   : No
Null samples used in CRC calculations       : Yes
Used interface                              : Native Win32 interface for Win NT & 2000
Gap handling                                : Appended to next track

Used output format              : User Defined Encoder
Selected bitrate                : 768 kBit/s
Quality                         : High
Add ID3 tag                     : No
Command line compressor         : C:\Program Files\Exact Audio Copy\Flac\flac.exe
Additional command line options : -V -8 -T "Date=%year%" -T "Genre=%genre%" %source%

TOC of the extracted CD

     Track |   Start  |  Length  | Start sector | End sector
    ---------------------------------------------------------
        1  |  0:00.00 |  2:31.29 |         0    |    11353
        2  |  2:31.29 |  6:30.51 |     11354    |    40654
        3  |  9:02.05 |  4:07.53 |     40655    |    59232
        4  | 13:09.58 |  9:27.22 |     59233    |   101779
        5  | 22:37.05 |  4:43.51 |    101780    |   123055
        6  | 27:20.56 |  6:16.29 |    123056    |   151284
        7  | 33:37.10 |  5:39.03 |    151285    |   176712
        8  | 39:16.13 |  6:28.28 |    176713    |   205840
        9  | 45:44.41 |  5:57.47 |    205841    |   232662
       10  | 51:42.13 |  4:45.44 |    232663    |   254081
       11  | 56:27.57 |  4:28.73 |    254082    |   274254
       12  | 60:56.55 |  6:17.25 |    274255    |   302554
       13  | 67:14.05 |  2:48.20 |    302555    |   315174
       14  | 70:02.25 |  5:45.11 |    315175    |   341060

Track  1

     Filename C:\Program Files\Exact Audio Copy\Flac\Новая папка\201 Gargantua.wav

     Pre-gap length  0:00:02.00

     Peak level 99.9 %
     Extraction speed 1.8 X
     Track quality 99.9 %
     Test CRC 4FDF6A7D
     Copy CRC 4FDF6A7D
     Copy OK

Track  2

     Filename C:\Program Files\Exact Audio Copy\Flac\Новая папка\202 Decomposed (Trampled).wav

     Peak level 99.9 %
     Extraction speed 2.8 X
     Track quality 100.0 %
     Test CRC 807D86F2
     Copy CRC 807D86F2
     Copy OK

Track  3

     Filename C:\Program Files\Exact Audio Copy\Flac\Новая папка\203 Sacrilege.wav

     Peak level 99.9 %
     Extraction speed 3.0 X
     Track quality 100.0 %
     Test CRC 80990181
     Copy CRC 80990181
     Copy OK

Track  4

     Filename C:\Program Files\Exact Audio Copy\Flac\Новая папка\204 Bring To A Boil.wav

     Peak level 99.9 %
     Extraction speed 3.6 X
     Track quality 100.0 %
     Test CRC 694CDB25
     Copy CRC 694CDB25
     Copy OK

Track  5

     Filename C:\Program Files\Exact Audio Copy\Flac\Новая папка\205 Virtually Hopeless.wav

     Peak level 99.9 %
     Extraction speed 3.7 X
     Track quality 100.0 %
     Test CRC 54E4F747
     Copy CRC 54E4F747
     Copy OK

Track  6

     Filename C:\Program Files\Exact Audio Copy\Flac\Новая папка\206 Coward (Submerged).wav

     Peak level 99.9 %
     Extraction speed 4.0 X
     Track quality 100.0 %
     Test CRC 2E2BF158
     Copy CRC 2E2BF158
     Copy OK

Track  7

     Filename C:\Program Files\Exact Audio Copy\Flac\Новая папка\207 Ruthless.wav

     Peak level 99.9 %
     Extraction speed 4.3 X
     Track quality 100.0 %
     Test CRC A192DCF4
     Copy CRC A192DCF4
     Copy OK

Track  8

     Filename C:\Program Files\Exact Audio Copy\Flac\Новая папка\208 Afterglow.wav

     Peak level 99.9 %
     Extraction speed 4.5 X
     Track quality 100.0 %
     Test CRC 8A7B7EB7
     Copy CRC 8A7B7EB7
     Copy OK

Track  9

     Filename C:\Program Files\Exact Audio Copy\Flac\Новая папка\209 Battered States Of Euphoria.wav

     Peak level 99.9 %
     Extraction speed 4.8 X
     Track quality 100.0 %
     Test CRC B2AA6C06
     Copy CRC B2AA6C06
     Copy OK

Track 10

     Filename C:\Program Files\Exact Audio Copy\Flac\Новая папка\210 Abominations Unleashed.wav

     Peak level 99.9 %
     Extraction speed 4.9 X
     Track quality 100.0 %
     Test CRC F6693B94
     Copy CRC F6693B94
     Copy OK

Track 11

     Filename C:\Program Files\Exact Audio Copy\Flac\Новая папка\211 Dead Days.wav

     Peak level 99.9 %
     Extraction speed 5.0 X
     Track quality 100.0 %
     Test CRC 3586B8B9
     Copy CRC 3586B8B9
     Copy OK

Track 12

     Filename C:\Program Files\Exact Audio Copy\Flac\Новая папка\212 Atom Smasher.wav

     Peak level 99.9 %
     Extraction speed 5.4 X
     Track quality 100.0 %
     Test CRC D14C16B5
     Copy CRC D14C16B5
     Copy OK

Track 13

     Filename C:\Program Files\Exact Audio Copy\Flac\Новая папка\213 Power Struggle.wav

     Peak level 99.9 %
     Extraction speed 4.8 X
     Track quality 100.0 %
     Test CRC 0E3A7C13
     Copy CRC 0E3A7C13
     Copy OK

Track 14

     Filename C:\Program Files\Exact Audio Copy\Flac\Новая папка\214 Sacrilege (Grimpen Ward).wav

     Peak level 99.9 %
     Extraction speed 5.4 X
     Track quality 100.0 %
     Test CRC 70631A7E
     Copy CRC 70631A7E
     Copy OK

No errors occurred

End of status report

==== Log checksum A145435E583DF3A164DFE5CD83BD3A0A0D93E46BD9A2D1AA551E23953CF1940E ====

Продолжительность: 01:13:31
Треклист:

01. When Worlds Collide {Wicked Radio Edit} (06:07)
02. Telepath (04:11)
03. Doomsday Accelerator {Los Alamos Mix} (03:04)
04. Continuum (04:51)
05. Rapid Suffocation {Lesionary Mix} (06:19)
06. Sacrilege {Angel Of Death Mix} (07:10)
07. Battered States Of Euphoria {Acoustical} (03:17)
08. Power Struggle {Tribulation} (02:51)
09. Natalia {Cen-Tex Edit} (02:50)
10. Murderers Among Us {Grimpen Ward Radio Edit} (04:23)
11. Decomposed {Return To Grimpen Ward} (06:27)
12. Other World Technology {Plutonium Trigger Mix} (05:29)
13. Abandon All Hope {Magi Mix} (04:17)
14. Lightyear {Cosmo Mix} (03:09)
15. False Prophets {Shotgun Messiah Mix} (04:36)
16. Crypto Anarchist {Martyr Mix} (04:30)
Код: выделить все

Exact Audio Copy V1.0 beta 3 from 29. August 2011

EAC extraction logfile from 10. November 2014, 13:50

Mentallo and the Fixer / Apocrypha [Zothera CD 3]

Used drive  : ATAPI   iHAS124   Y   Adapter: 3  ID: 1

Read mode               : Secure
Utilize accurate stream : Yes
Defeat audio cache      : Yes
Make use of C2 pointers : No

Read offset correction                      : 48
Overread into Lead-In and Lead-Out          : No
Fill up missing offset samples with silence : Yes
Delete leading and trailing silent blocks   : No
Null samples used in CRC calculations       : Yes
Used interface                              : Native Win32 interface for Win NT & 2000
Gap handling                                : Appended to next track

Used output format              : User Defined Encoder
Selected bitrate                : 768 kBit/s
Quality                         : High
Add ID3 tag                     : No
Command line compressor         : C:\Program Files\Exact Audio Copy\Flac\flac.exe
Additional command line options : -V -8 -T "Date=%year%" -T "Genre=%genre%" %source%

TOC of the extracted CD

     Track |   Start  |  Length  | Start sector | End sector
    ---------------------------------------------------------
        1  |  0:00.00 |  6:06.66 |         0    |    27515
        2  |  6:06.66 |  4:11.12 |     27516    |    46352
        3  | 10:18.03 |  3:04.01 |     46353    |    60153
        4  | 13:22.04 |  4:50.68 |     60154    |    81971
        5  | 18:12.72 |  6:18.43 |     81972    |   110364
        6  | 24:31.40 |  7:10.21 |    110365    |   142635
        7  | 31:41.61 |  3:16.44 |    142636    |   157379
        8  | 34:58.30 |  2:50.71 |    157380    |   170200
        9  | 37:49.26 |  2:49.55 |    170201    |   182930
       10  | 40:39.06 |  4:23.29 |    182931    |   202684
       11  | 45:02.35 |  6:27.32 |    202685    |   231741
       12  | 51:29.67 |  5:28.60 |    231742    |   256401
       13  | 56:58.52 |  4:17.28 |    256402    |   275704
       14  | 61:16.05 |  3:09.16 |    275705    |   289895
       15  | 64:25.21 |  4:35.55 |    289896    |   310575
       16  | 69:01.01 |  4:30.16 |    310576    |   330841

Track  1

     Filename C:\Program Files\Exact Audio Copy\Flac\Новая папка\301 When Worlds Collide [Wicked Radio Edit].wav

     Pre-gap length  0:00:02.00

     Peak level 98.5 %
     Extraction speed 2.6 X
     Track quality 100.0 %
     Test CRC F74114A4
     Copy CRC F74114A4
     Copy OK

Track  2

     Filename C:\Program Files\Exact Audio Copy\Flac\Новая папка\302 Telepath.wav

     Peak level 92.4 %
     Extraction speed 2.8 X
     Track quality 100.0 %
     Test CRC B0E644A9
     Copy CRC B0E644A9
     Copy OK

Track  3

     Filename C:\Program Files\Exact Audio Copy\Flac\Новая папка\303 Doomsday Accelerator [Los Alamos Mix].wav

     Peak level 99.9 %
     Extraction speed 2.8 X
     Track quality 100.0 %
     Test CRC AFE7FEA0
     Copy CRC AFE7FEA0
     Copy OK

Track  4

     Filename C:\Program Files\Exact Audio Copy\Flac\Новая папка\304 Continuum.wav

     Peak level 100.0 %
     Extraction speed 3.3 X
     Track quality 100.0 %
     Test CRC 5FF97EB9
     Copy CRC 5FF97EB9
     Copy OK

Track  5

     Filename C:\Program Files\Exact Audio Copy\Flac\Новая папка\305 Rapid Suffocation [Lesionary Mix].wav

     Peak level 99.9 %
     Extraction speed 3.6 X
     Track quality 100.0 %
     Test CRC FE0140B3
     Copy CRC FE0140B3
     Copy OK

Track  6

     Filename C:\Program Files\Exact Audio Copy\Flac\Новая папка\306 Sacrilege [Angel Of Death Mix].wav

     Peak level 99.9 %
     Extraction speed 3.7 X
     Track quality 99.9 %
     Test CRC 781A455F
     Copy CRC 781A455F
     Copy OK

Track  7

     Filename C:\Program Files\Exact Audio Copy\Flac\Новая папка\307 Battered States Of Euphoria [Acoustical].wav

     Peak level 99.9 %
     Extraction speed 3.8 X
     Track quality 100.0 %
     Test CRC EDF48978
     Copy CRC EDF48978
     Copy OK

Track  8

     Filename C:\Program Files\Exact Audio Copy\Flac\Новая папка\308 Power Struggle [Tribulation].wav

     Peak level 99.8 %
     Extraction speed 3.2 X
     Track quality 99.9 %
     Test CRC 497941B7
     Copy CRC 497941B7
     Copy OK

Track  9

     Filename C:\Program Files\Exact Audio Copy\Flac\Новая папка\309 Natalia [Cen-Tex Edit].wav

     Peak level 100.0 %
     Extraction speed 3.9 X
     Track quality 100.0 %
     Test CRC 37774B35
     Copy CRC 37774B35
     Copy OK

Track 10

     Filename C:\Program Files\Exact Audio Copy\Flac\Новая папка\310 Murderers Among Us [Grimpen Ward Radoi Edit].wav

     Peak level 99.9 %
     Extraction speed 4.3 X
     Track quality 100.0 %
     Test CRC 72E0CEE6
     Copy CRC 72E0CEE6
     Copy OK

Track 11

     Filename C:\Program Files\Exact Audio Copy\Flac\Новая папка\311 Decompressed [Return To Grimpen Ward].wav

     Peak level 99.9 %
     Extraction speed 4.3 X
     Track quality 99.9 %
     Test CRC 576673A2
     Copy CRC 576673A2
     Copy OK

Track 12

     Filename C:\Program Files\Exact Audio Copy\Flac\Новая папка\312 Other World Technology [Plutonium Trigger Mix].wav

     Peak level 100.0 %
     Extraction speed 4.8 X
     Track quality 100.0 %
     Test CRC CDA2915B
     Copy CRC CDA2915B
     Copy OK

Track 13

     Filename C:\Program Files\Exact Audio Copy\Flac\Новая папка\313 Abandon All Hope [Magi Mix].wav

     Peak level 99.9 %
     Extraction speed 4.9 X
     Track quality 100.0 %
     Test CRC B0746FE1
     Copy CRC B0746FE1
     Copy OK

Track 14

     Filename C:\Program Files\Exact Audio Copy\Flac\Новая папка\314 Lightyear [Cosmo Mix].wav

     Peak level 99.9 %
     Extraction speed 4.0 X
     Track quality 99.9 %
     Test CRC 57595848
     Copy CRC 57595848
     Copy OK

Track 15

     Filename C:\Program Files\Exact Audio Copy\Flac\Новая папка\315 False Prophets [Shotgun Messiah Mix].wav

     Peak level 100.0 %
     Extraction speed 5.1 X
     Track quality 100.0 %
     Test CRC 23DD36B8
     Copy CRC 23DD36B8
     Copy OK

Track 16

     Filename C:\Program Files\Exact Audio Copy\Flac\Новая папка\316 Crypto Anarchist [Martyr Mix].wav

     Peak level 99.9 %
     Extraction speed 5.2 X
     Track quality 100.0 %
     Test CRC 32199AC6
     Copy CRC 32199AC6
     Copy OK

No errors occurred

End of status report

==== Log checksum 801847BFF04F82E4F48A106FFAA370ED64D22D9E042561FB7F4AB0A25514A9EA ====

Время раздачи: 12/7
[NNM-Club.me]_Mentallo And The Fixer - Zophera (2014) FLAC.torrent
 Торрент: Платиновая раздача  Зарегистрирован
 
Скачать


Примагнититься
 Зарегистрирован:   19 Май 2019 19:14:38
 Размер:   1,68 GB  (
 Рейтинг:   4,5 (Голосов: 14)
 Поблагодарили:   47
 Проверка:   Оформление проверено модератором 19 Май 2019 19:15:05
Как cкачать  ·  Как раздать  ·  Правильно оформить  ·  Поднять ратио!  
vilator ®
Модератор Музыки
RG Music
 
Стаж: 10 лет 6 мес.
Сообщений: 9469
Ratio: 178,454
Поблагодарили: 192062
100%
Откуда: Minsk
pirates.png
Заменил на лучший рип.
Показать сообщения:   
Начать новую тему   Ответить на тему    Торрент-трекер NNM-Club -> Electronic -> Experimental, Industrial, EBM, Dark Electro (Lossless) Часовой пояс: GMT + 3
Страница 1 из 1