Классический форум-трекер
canvas not supported
Нас вместе: 4 114 147

The Beatles: Вечер трудного дня / A Hard Day's Night (1964) BDRip [H.264] [hand made colored]


 
 
RSS
Начать новую тему   Ответить на тему    Торрент-трекер NNM-Club -> Театр и Музыкальное видео -> Опера, Балет, Мюзиклы
Автор Сообщение
langust12 ®
Стаж: 5 лет 8 мес.
Сообщений: 1132
Ratio: 523,545
Поблагодарили: 67440
100%
russia.gif
The Beatles: Вечер трудного дня / A Hard Day's Night (1964) BDRip [H.264] [hand made colored]
Страна: Великобритания
Год выпуска: 1964
Жанр: Комедия, Музыкальный

Описание фильма:
1964 год: начало битломании. Битлз дебютируют на американской сцене в шоу Эда Салливана. Режиссер Ричард Лестер делает первый фильм о группе, сняв его в жанре музыкальной комедии. К сожалению, в черно-белом варианте.
Колоризовал четыре клипа фильма. Остальные фрагменты раскрасил двумя цветами.

Режиссер: Ричард Лестер / Richard Lester
Актеры: Ринго Старр /Ringo Starr, Пол Маккартни /Paul McCartney, Джон Леннон /John Lennon, Джордж Хэррисон /George Harrison, Уилфред Брэмбелл /Wilfrid Brambell, Виктор Спинетти /Victor Spinetti, Анна Куэйл /Anna Quayle, Норман Россингтон /Norman Rossington, Джон Джанкин /John Junkin, Дерик Гайлер /Deryck Guyler
Продолжительность: 01:27:22
Качество видео: BDRip [profile-LQ]
Перевод: Многоголосый закадровый (профессиональный)
Язык: Русский



Видеокодек: MPEG-4 AVC/H.264
Битрейт видео: ~2590 kb/s (29.970 fps)
Размер кадра: 720x480 (16:9)
Аудиокодек: AAC 2.0
Битрейт аудио: 192 kbps (48 kHz)
В фильме звучат следующие песни "A Hard Day's Night", "Tell Me Why", "I Should Have Known Better", "If I Fell", "And I Love Her", "All My Loving", "This Boy (Ringo's Theme)", "Can't Buy Me Love", "I'm Happy Just To Dance With You", "I Wanna Be Your Man", "I'll Cry Instead"...
Фильм частично колоризован. В частности, следующие клипы: ''And I Love Her'', "She Loves You", "A Hard Day's Night", "Tell Me Why". Для остальных фрагментов применено духцветное раскрашивание. В клипе ''And I Love Her'' присутствует несколько секунд дублирующих кадров. Финальный клип несколько сокращен.
I:\Torrent_Download\hard_days_night_color_langust.mp4
General
Complete name : I:\Torrent_Download\hard_days_night_color_langust.mp4
Format : MPEG-4
Format profile : Base Media / Version 2
Codec ID : mp42
File size : 1.70 GiB
Duration : 1h 27mn
Overall bit rate : 2 787 Kbps
Encoded date : UTC 2014-11-08 05:38:09
Tagged date : UTC 2014-11-08 05:38:09
Video #1
ID : 1
Format : AVC
Format/Info : Advanced Video Codec
Format profile : High@L4.1
Format settings, CABAC : Yes
Format settings, ReFrames : 3 frames
Codec ID : avc1
Codec ID/Info : Advanced Video Coding
Duration : 1h 27mn
Bit rate mode : Variable
Bit rate : 2 590 Kbps
Maximum bit rate : 3 400 Kbps
Width : 720 pixels
Height : 480 pixels
Display aspect ratio : 16:9
Frame rate mode : Constant
Frame rate : 29.970 fps
Standard : NTSC
Color space : YUV
Chroma subsampling : 4:2:0
Bit depth : 8 bits
Scan type : Progressive
Bits/(Pixel*Frame) : 0.250
Stream size : 1.58 GiB (93%)
Language : English
Encoded date : UTC 2014-11-08 05:38:09
Tagged date : UTC 2014-11-08 05:38:09
Color primaries : BT.601-6 525, BT.1358 525, BT.1700 NTSC, SMPTE 170M
Transfer characteristics : BT.601-6 525, BT.601-6 625, BT.1358 525, BT.1358 625, BT.1700 NTSC, SMPTE 170M
Matrix coefficients : BT.601-6 525, BT.1358 525, BT.1700 NTSC, SMPTE 170M
Audio #2
ID : 2
Format : AAC
Format/Info : Advanced Audio Codec
Format version : Version 4
Format profile : LC
Codec ID : 40
Duration : 1h 27mn
Bit rate mode : Variable
Bit rate : 192 Kbps
Maximum bit rate : 391 Kbps
Channel(s) : 2 channels
Channel positions : Front: L R
Sampling rate : 48.0 KHz
Compression mode : Lossy
Stream size : 120 MiB (7%)
Language : English
Encoded date : UTC 2014-11-08 05:38:09
Tagged date : UTC 2014-11-08 05:38:09
Скриншоты:
Время раздачи: круглосуточно
[NNM-Club.me]_hard_days_night_color_langust.mp4.torrent
 Торрент: Платиновая раздача  Зарегистрирован
 
Скачать


Примагнититься
 Зарегистрирован:   08 Ноя 2014 15:12:49
 Размер:   1,7 GB  (
 Рейтинг:   4,7 (Голосов: 18)
 Поблагодарили:   66
 Проверка:   Оформление проверено модератором 15 Ноя 2014 01:29:47
Как cкачать  ·  Как раздать  ·  Правильно оформить  ·  Поднять ратио!  
sevapva
Стаж: 9 лет 1 мес.
Сообщений: 142
Ratio: 12,363
Поблагодарили: 8
75.79%
russia.gif
классно получилось!
19eug84
Стаж: 9 лет 1 мес.
Сообщений: 31
Ratio: 25,532
Раздал: 13,02 TB
100%
Откуда: Трансильвания
cod4.gif
сейчас оценим. заранее спаибо
langust12 ®
Стаж: 5 лет 8 мес.
Сообщений: 1132
Ratio: 523,545
Поблагодарили: 67440
100%
russia.gif
Варианты кадров из фильма (в HD):




langust12 ®
Стаж: 5 лет 8 мес.
Сообщений: 1132
Ratio: 523,545
Поблагодарили: 67440
100%
russia.gif
sevapva писал(а): Перейти к сообщению
классно получилось!

Спасибо за оценку и за помощь в деле "колоризации всей страны"!
langust12 ®
Стаж: 5 лет 8 мес.
Сообщений: 1132
Ratio: 523,545
Поблагодарили: 67440
100%
russia.gif
Собственно говоря, этот релиз является моим первым опытом по многоцветному тонированию. И вообще, колоризацией стал заниматься именно с этого фильма - тут есть несколько клипов, раскрашенных несколько лет назад в натуральных цветах - вручную, кадр за кадром.
langust12 ®
Стаж: 5 лет 8 мес.
Сообщений: 1132
Ratio: 523,545
Поблагодарили: 67440
100%
russia.gif
Вот один из клипов, который собрал сотню тысяч просмотров:
YouTube
Показать сообщения:   
Начать новую тему   Ответить на тему    Торрент-трекер NNM-Club -> Театр и Музыкальное видео -> Опера, Балет, Мюзиклы Часовой пояс: GMT + 3
Страница 1 из 1