Классический форум-трекер
canvas not supported
Нас вместе: 4 093 517

Перелом / Fracture (2007) BDRemux [1080p]


 
 
RSS
Начать новую тему   Ответить на тему    Торрент-трекер NNM-Club -> Зарубежное кино -> Зарубежные Фильмы (HD, UHD-LQ)
Автор Сообщение
y607ce ®
Стаж: 12 лет 3 мес.
Сообщений: 1719
Ratio: 1133,178
Раздал: 640,2 TB
Поблагодарили: 70527
100%
Откуда: Татарстан
ussr.gif
Перелом / Fracture (2007) BDRemux
Год выпуска: 2007
Производство: США, Германия / New Line Cinema, Castle Rock Entertainment, Weinstock Productions
Жанр: Криминал, Драма, Триллер

Перевод: Дублированный
Субтитры: Вшитые отключаемые
Язык субтитров: русский, английский

Дата мировой премьеры: 11 апреля 2007
Дата российской премьеры: 5 июля 2007, «Каро-Премьер»
Дата выхода DVD релиза: 2 июня 2009, «Юниверсал Пикчерс Рус»

Режиссер: Грегори Хоблит / Gregory Hoblit
Актеры: Энтони Хопкинс / Anthony Hopkins, Райан Гослинг / Ryan Gosling, Дэвид Стрэтэйрн / David Strathairn, Розамунд Пайк / Rosamund Pike, Эмбет Дэвидц / Embeth Davidtz, Билли Бёрк / Billy Burke, Клифф Кёртис / Cliff Curtis, Фиона Шоу / Fiona Shaw, Боб Гантон / Bob Gunton, Джош Стэмберг / Josh Stamberg

Описание фильма:
Миллионер Тед Кроуфорд (Энтони Хопкинс) без ума от своей жены Дженнифер (Эмбет Дэвидц). Однажды Тед узнает, что благоверная — не такая уж благоверная и изменяет ему с офицером полиции. И тогда Кроуфорд с поразительным (во всяком случае, для охваченного приступом ревности супруга) хладнокровием пускает жене пулю в лицо. Ряд юридических нестыковок и собственная хитрость, вроде бы, позволяют Теду избежать тюрьмы, однако на пути к окончательной свободе встает молодой помощник окружного прокурора Уилли Бичем (Райан Гослинг) — амбициозный законник, умудрившийся добиться вердикта «виновен» для 97% своих «подопечных».



Продолжительность: 01:53:27
Качество видео: BDRemux [1080p]

Видео: VC-1, ~15747 kbps, 1920x1080
Аудио 1 (RUS): DD 5.1, 48 kHz, 640 kbps | профессиональный дублированный
Аудио 2 (RUS): DD 5.1, 48 kHz, 640 kbps | авторский одноголосный (Юрий Живов)
Аудио 3 (ENG): DD 5.1, 48 kHz, 640 kbps | оригинальная озвучка
Аудио 4 (ENG): TrueHD 5.1, 48 kHz, ~1358 kbps lossless (core: DD 5.1, 48 kHz, 640 kbps) | оригинальная озвучка (отдельным файлом)

Complete name : P:\Перелом-Fracture.(2007).Blu-Ray.[1080p]-MaLLIeHbKa\Perelom.2007.2xRUS.ENG.2xSub.1080p.BDRemux.VC-1.AC3.-MaLLIeHbKa.mkv
Format : Matroska
Format version : Version 2
File size : 14.0 GiB
Duration : 1h 53mn
Overall bit rate : 17.7 Mbps
Movie name : Fracture (2007) BDRemux
Encoded date : UTC 2009-06-22 21:13:42
Writing application : mkvmerge v2.9.5 ('Tu es le seul') built on Jun 7 2009 11:07:07
Writing library : libebml v0.7.7 + libmatroska v0.8.1
Cover : Yes

Video
ID : 1
Format : VC-1
Format profile : Advanced@L3
Codec ID : V_MS/VFW/FOURCC / WVC1
Codec ID/Hint : Microsoft
Duration : 1h 53mn
Bit rate : 15.4 Mbps
Width : 1 920 pixels
Height : 1 080 pixels
Display aspect ratio : 16:9
Frame rate mode : Constant
Frame rate : 23.976 fps
Color space : YUV
Chroma subsampling : 4:2:0
Bit depth : 8 bits
Scan type : Progressive
Compression mode : Lossy
Bits/(Pixel*Frame) : 0.310
Stream size : 12.2 GiB (87%)
Title : 1920x1080p (2.35:1), 23.976 fps, VC-1 ~15747 kbps
Language : English
Default : Yes
Forced : No

Audio #1
ID : 2
Format : AC-3
Format/Info : Audio Coding 3
Mode extension : CM (complete main)
Format settings, Endianness : Big
Codec ID : A_AC3
Duration : 1h 53mn
Bit rate mode : Constant
Bit rate : 640 Kbps
Channel(s) : 6 channels
Channel positions : Front: L C R, Side: L R, LFE
Sampling rate : 48.0 KHz
Bit depth : 16 bits
Compression mode : Lossy
Stream size : 519 MiB (4%)
Title : RUS Dub DD 5.1, 48 kHz, 640 kbps
Language : Russian
Default : Yes
Forced : No

Audio #2
ID : 3
Format : AC-3
Format/Info : Audio Coding 3
Mode extension : CM (complete main)
Format settings, Endianness : Big
Codec ID : A_AC3
Duration : 1h 53mn
Bit rate mode : Constant
Bit rate : 640 Kbps
Channel(s) : 6 channels
Channel positions : Front: L C R, Side: L R, LFE
Sampling rate : 48.0 KHz
Bit depth : 16 bits
Compression mode : Lossy
Stream size : 519 MiB (4%)
Title : RUS AVO Zhivov DD 5.1, 48 kHz, 640 kbps
Language : Russian
Default : No
Forced : No

Audio #3
ID : 4
Format : AC-3
Format/Info : Audio Coding 3
Mode extension : CM (complete main)
Format settings, Endianness : Big
Codec ID : A_AC3
Duration : 1h 53mn
Bit rate mode : Constant
Bit rate : 640 Kbps
Channel(s) : 6 channels
Channel positions : Front: L C R, Side: L R, LFE
Sampling rate : 48.0 KHz
Bit depth : 16 bits
Compression mode : Lossy
Stream size : 519 MiB (4%)
Title : ENG DD 5.1, 48 kHz, 640 kbps
Language : English
Default : No
Forced : No

Text #1
ID : 5
Format : UTF-8
Codec ID : S_TEXT/UTF8
Codec ID/Info : UTF-8 Plain Text
Title : RUS SRT/UTF8
Language : Russian
Default : No
Forced : No

Text #2
ID : 6
Format : UTF-8
Codec ID : S_TEXT/UTF8
Codec ID/Info : UTF-8 Plain Text
Title : ENG SRT/UTF8
Language : English
Default : No
Forced : No

Menu
00:00:00.000 : en:Opening Credits
00:07:10.847 : en:The Crime
00:12:22.742 : en:Negotiations
00:18:11.549 : en:Hotshot
00:26:42.893 : en:Mingling
00:32:41.543 : en:Evidence
00:37:43.678 : en:The Interview
00:43:38.324 : en:Testimony
00:52:11.712 : en:One More Chance
01:00:17.280 : en:Investigation
01:07:02.185 : en:White or Dark?
01:13:37.955 : en:Waiting
01:19:31.684 : en:Motion
01:28:27.928 : en:Finality
01:39:11.487 : en:Double Jeopardy
01:48:56.488 : en:End Credits
«Знание доставляет боль». — бормочет технический специалист и по-своему гениальный конструктор Тед Кроуфорд, после чего стреляет в лицо своей жене. Дело волею случая (и Теда) оказывается в руках удачливого гособвинителя Уилла Бичема — вечно весёлого, уверенного до самости и в довесок победителя по натуре. Уилл, очень ладно изображающий молодость Кевина Ломакса из «Адвоката дьявола» (тот тоже был сперва прокурором, если не забыли), озабочен своим переходом в крутую юридическую фирму и обвинять Кроуфорда собирается в перерыве — одной левой. Тут-то похожий на Ганнибала Кроуфорд устраивает Уилли Бичему перелом.

Талантливый режиссер Грегори Хоблит, в 1996-м подаривший миру «Первобытный страх» и Эдварда Нортона в придачу, с «Переломом» возвращается к теме судебных триллеров после более-менее удачных картин несколько другой тематики.

Возвращение — триумфальное: Энтони Хопкинс и Райан Гослинг преломились превосходным актёрским дуэтом и затеяли настоящую игру в кошки-мышки, заставляющую затаить дыхание. Само- (и чужих) повторов удалось избежать: Хопкинс слишком часто моргает и совсем по-иному юмористичен для чернокнижника-Ганнибала, Райан Гослинг вообще выводит на экране какой-то новый тип героя — нахрапистого и мужественного юмориста-победителя. Такими обычно бывают герои боевиков, а в судебные драмы они до этого ещё не проникали. Новизна подкупает: даже с легким провисанием сюжета в середине фильм смотрится на «Ура» и десять баллов.

С отличными от других героями и при всей похожести на другие «кошки-мышки» (и судебное крючкотворство) «Перелом» — в корне иная сюжетная игра, чем любой аналог. Центр тяжести тут — в любви к специальности, и в том оскорбленном чувстве профессиональной гордости, с которым втягивается в борьбу прокурор Бичем. Нет никакой метафизики («Адвокат дьявола», «Эмили Роуз»), нет погружений в недра психики («Первобытный страх») и защиты демократии («Народ против Лари Флинта»). Действие строится на соперничестве умов — конструкторского и юридического (позитивного и нормативного) — и на том чистом, прямо оргазмическом удовольствии загасить кого-нибудь силой собственного изощренного интеллекта, которое испытывает каждый обладатель превышающего «среднее по больнице» iq.

Давненько не снимали столь увлекательных и очищенных от всего другого фильмов про любовь к работе, как «Перелом». М-р Грегори Хоблит, я вам рукоплещу. © agent_steel
Скриншоты:




Время раздачи: 24/7
[NNM-Club.me]_Perelom-Fracture.(2007).Blu-Ray.[1080p]-MaLLIeHbKa.torrent
 Торрент: Платиновая раздача  Зарегистрирован
 
Скачать


Примагнититься
 Зарегистрирован:   18 Ноя 2014 08:36:11
 Размер:   18,4 GB  (
 Рейтинг:   4,9 (Голосов: 76)
 Поблагодарили:   310
 Проверка:   Оформление проверено модератором 18 Ноя 2014 10:30:45
Как cкачать  ·  Как раздать  ·  Правильно оформить  ·  Поднять ратио!  
nAyK88
Стаж: 8 лет 4 мес.
Сообщений: 154
Ratio: 13,89
100%
russia.gif
Шикарный фильм!
rusakovka1
Стаж: 7 лет 8 мес.
Сообщений: 28
Ratio: 6,633
100%
Супер фильм
михаил кривошеев
Стаж: 8 лет 2 мес.
Сообщений: 32
Ratio: 8,764
100%
Откуда: Воронеж
russia.gif
Согласен. Просто *огонь*.
boba88
RG NNM-Club DocTV
 
Стаж: 9 лет 9 мес.
Сообщений: 6021
Ratio: 101,231
Раздал: 44,01 TB
Поблагодарили: 226641
100%
Откуда: Одесса
Очень и очень прилично!
XTVTX
Стаж: 7 лет 7 мес.
Сообщений: 5
Ratio: 0,145
0%
Пожалуйста, встаньте на раздачу.
Показать сообщения:   
Начать новую тему   Ответить на тему    Торрент-трекер NNM-Club -> Зарубежное кино -> Зарубежные Фильмы (HD, UHD-LQ) Часовой пояс: GMT + 3
Страница 1 из 1