Классический форум-трекер
canvas not supported
Нас вместе: 4 078 948

Джеймс Мэтью Барри | Питер Пэн и Венди (1983 / 2012) [m4a]


 
 
RSS
Начать новую тему   Ответить на тему    Торрент-трекер NNM-Club -> Аудио и Видео -> Аудиокниги (AAC)
Автор Сообщение
BobrovDE ®
Стаж: 11 лет 4 мес.
Сообщений: 907
Ratio: 18,016
Поблагодарили: 27495
100%
russia.gif
Джеймс Мэтью Барри | Питер Пэн и Венди (1983 / 2012) [m4a]
Автор: Джеймс Мэтью Барри
Издательство: Мелодия, MEL CD 50 02016
Жанр: Музыкальная сказка / Инсценировка
Читает: Зоя Пыльнова, Валентина Игнатьева, Юрий Смирнов, Ирина Бордукова, Виктор Зозулин и другие
Продолжительность: 01:31:21 (00:44:57 + 00:46:23)
Формат (аудиокодек): m4a
Битрейт аудио: 345kb/s

Описание:
Удивительная история о сказочном мальчике, который не хотел взрослеть, давно поразила воображение детей и взрослых. Она началась с того, что однажды Питер Пэн влетел в окно детской в доме, где жили девочка Венди и двое ее братьев. Вместе с Питером они отправились на далекий волшебный остров. Там им встретились русалки, храбрые индейцы, озорная фея и даже пираты с их злобным главарем капитаном Крюком, судьба которого окажется в руках летающего мальчика.
Инсценировка и постановка Ф. Шейна
Тексты песен и музыкальные сцены А. Санина
Музыка И. Ефремова
Оркестр кинематографии п/у А. Петухова

Сказочник – В. Зозулин
Питер Пэн – З. Пыльнова
Венди – В. Игнатьева
Миссис Дарлинг, Огненная лилия – Л. Иванова
Мистер Дарлинг – С. Холмогоров (поёт О. Казначеев)
Капитан Джеймс Крюк – Ю. Смирнов
Фея Динь-Динь, Джейн – И. Бордукова
Шутник – Е. Милиотти
Задира – Б. Захарова
Хвастун – Е. Краснобаева
Малыш – Л. Савченко
Неряха – К. Желдин
Белоручка – В. Абдулов (поёт А. Граббе)
Чеко – О. Казанчеев
Майкл – А. Власова
Джон – И. Бордукова (поёт Л. Давыдова)
Общее
Полное имя : E:\Аудиокниги\Джеймс Мэтью Барри\Питер Пэн и Венди (1983) (2012, Мелодия, MEL CD 50 02016)\CD1\01.m4a
Формат : MPEG-4
Профиль формата : Base Media / Version 2
Идентификатор кодека : mp42
Размер файла : 53,7 Мбайт
Продолжительность : 21 м.
Режим общего битрейта : Переменный
Общий поток : 348 Кбит/сек
Трек : Питер Пэн и Венди, часть 1
Трек/Положение : 1
Исполнитель : Зоя Пыльнова, Валентина Игнатьева, Юрий Смирнов, Ирина Бордукова, Виктор Зозулин и другие
Жанр :
Дата кодирования : UTC 2014-11-27 12:26:34
Дата пометки : UTC 2014-11-27 12:26:36
Программа кодирования : qtaacenc 20110816, QuickTime 7.7.5, True VBR Quality 127
Encoding Params : vers

Аудио
Идентификатор : 1
Формат : AAC
Формат/Информация : Advanced Audio Codec
Профиль формата : LC
Идентификатор кодека : 40
Продолжительность : 21 м.
Вид битрейта : Переменный
Битрейт : 353 Кбит/сек
Максимальный битрейт : 391 Кбит/сек
Каналы : 2 канала
Расположение каналов : Front: L R
Частота : 44,1 КГц
Метод сжатия : С потерями
Размер потока : 53,4 Мбайт (99%)
Заголовок : Обработчик звука Apple
Язык : English
Дата кодирования : UTC 2014-11-27 12:26:34
Дата пометки : UTC 2014-11-27 12:26:36

Общее
Полное имя : E:\Аудиокниги\Джеймс Мэтью Барри\Питер Пэн и Венди (1983) (2012, Мелодия, MEL CD 50 02016)\CD1\02.m4a
Формат : MPEG-4
Профиль формата : Base Media / Version 2
Идентификатор кодека : mp42
Размер файла : 57,5 Мбайт
Продолжительность : 23 м.
Режим общего битрейта : Переменный
Общий поток : 344 Кбит/сек
Трек : Питер Пэн и Венди, часть 2
Трек/Положение : 2
Исполнитель : Зоя Пыльнова, Валентина Игнатьева, Юрий Смирнов, Ирина Бордукова, Виктор Зозулин и другие
Жанр :
Дата кодирования : UTC 2014-11-27 12:26:39
Дата пометки : UTC 2014-11-27 12:26:40
Программа кодирования : qtaacenc 20110816, QuickTime 7.7.5, True VBR Quality 127
Encoding Params : vers

Аудио
Идентификатор : 1
Формат : AAC
Формат/Информация : Advanced Audio Codec
Профиль формата : LC
Идентификатор кодека : 40
Продолжительность : 23 м.
Вид битрейта : Переменный
Битрейт : 342 Кбит/сек
Максимальный битрейт : 392 Кбит/сек
Каналы : 2 канала
Расположение каналов : Front: L R
Частота : 44,1 КГц
Метод сжатия : С потерями
Размер потока : 57,2 Мбайт (99%)
Заголовок : Обработчик звука Apple
Язык : English
Дата кодирования : UTC 2014-11-27 12:26:38
Дата пометки : UTC 2014-11-27 12:26:40

Общее
Полное имя : E:\Аудиокниги\Джеймс Мэтью Барри\Питер Пэн и Венди (1983) (2012, Мелодия, MEL CD 50 02016)\CD2\01.m4a
Формат : MPEG-4
Профиль формата : Base Media / Version 2
Идентификатор кодека : mp42
Размер файла : 55,5 Мбайт
Продолжительность : 22 м.
Режим общего битрейта : Переменный
Общий поток : 340 Кбит/сек
Трек : Питер Пэн и Венди, часть 3
Трек/Положение : 1
Исполнитель : Зоя Пыльнова, Валентина Игнатьева, Юрий Смирнов, Ирина Бордукова, Виктор Зозулин и другие
Жанр :
Дата кодирования : UTC 2014-11-27 12:26:37
Дата пометки : UTC 2014-11-27 12:26:39
Программа кодирования : qtaacenc 20110816, QuickTime 7.7.5, True VBR Quality 127
Encoding Params : vers

Аудио
Идентификатор : 1
Формат : AAC
Формат/Информация : Advanced Audio Codec
Профиль формата : LC
Идентификатор кодека : 40
Продолжительность : 22 м.
Вид битрейта : Переменный
Битрейт : 338 Кбит/сек
Максимальный битрейт : 405 Кбит/сек
Каналы : 2 канала
Расположение каналов : Front: L R
Частота : 44,1 КГц
Метод сжатия : С потерями
Размер потока : 55,2 Мбайт (99%)
Заголовок : Обработчик звука Apple
Язык : English
Дата кодирования : UTC 2014-11-27 12:26:36
Дата пометки : UTC 2014-11-27 12:26:39

Общее
Полное имя : E:\Аудиокниги\Джеймс Мэтью Барри\Питер Пэн и Венди (1983) (2012, Мелодия, MEL CD 50 02016)\CD2\02.m4a
Формат : MPEG-4
Профиль формата : Base Media / Version 2
Идентификатор кодека : mp42
Размер файла : 57,7 Мбайт
Продолжительность : 23 м.
Режим общего битрейта : Переменный
Общий поток : 342 Кбит/сек
Трек : Питер Пэн и Венди, часть 4
Трек/Положение : 2
Исполнитель : Зоя Пыльнова, Валентина Игнатьева, Юрий Смирнов, Ирина Бордукова, Виктор Зозулин и другие
Жанр :
Дата кодирования : UTC 2014-11-27 12:26:39
Дата пометки : UTC 2014-11-27 12:26:41
Программа кодирования : qtaacenc 20110816, QuickTime 7.7.5, True VBR Quality 127
Encoding Params : vers

Аудио
Идентификатор : 1
Формат : AAC
Формат/Информация : Advanced Audio Codec
Профиль формата : LC
Идентификатор кодека : 40
Продолжительность : 23 м.
Вид битрейта : Переменный
Битрейт : 340 Кбит/сек
Максимальный битрейт : 391 Кбит/сек
Каналы : 2 канала
Расположение каналов : Front: L R
Частота : 44,1 КГц
Метод сжатия : С потерями
Размер потока : 57,4 Мбайт (99%)
Заголовок : Обработчик звука Apple
Язык : English
Дата кодирования : UTC 2014-11-27 12:26:38
Дата пометки : UTC 2014-11-27 12:26:41

Общее
Полное имя : E:\Аудиокниги\Джеймс Мэтью Барри\Питер Пэн и Венди (1983) (2012, Мелодия, MEL CD 50 02016)\cover.jpg
Формат : JPEG
Размер файла : 488 Кбайт

Изображения
Формат : JPEG
Ширина : 800 пикселей
Высота : 701 пикселей
Цветовое пространство : YUV
Субдискретизация насыщенности : 4:2:0
Битовая глубина : 8 бит
Метод сжатия : С потерями
Размер потока : 488 Кбайт (100%)

Общее
Полное имя : E:\Аудиокниги\Джеймс Мэтью Барри\Питер Пэн и Венди (1983) (2012, Мелодия, MEL CD 50 02016)\scans\01.jpg
Формат : JPEG
Размер файла : 7,82 Мбайт

Изображения
Формат : JPEG
Ширина : 6921 пикселей
Высота : 3047 пикселей
Цветовое пространство : YUV
Субдискретизация насыщенности : 4:2:0
Битовая глубина : 8 бит
Метод сжатия : С потерями
Размер потока : 7,82 Мбайт (100%)

Общее
Полное имя : E:\Аудиокниги\Джеймс Мэтью Барри\Питер Пэн и Венди (1983) (2012, Мелодия, MEL CD 50 02016)\scans\02.jpg
Формат : JPEG
Размер файла : 7,31 Мбайт

Изображения
Формат : JPEG
Ширина : 6921 пикселей
Высота : 3047 пикселей
Цветовое пространство : YUV
Субдискретизация насыщенности : 4:2:0
Битовая глубина : 8 бит
Метод сжатия : С потерями
Размер потока : 7,31 Мбайт (100%)

Общее
Полное имя : E:\Аудиокниги\Джеймс Мэтью Барри\Питер Пэн и Венди (1983) (2012, Мелодия, MEL CD 50 02016)\scans\03.jpg
Формат : JPEG
Размер файла : 3,65 Мбайт

Изображения
Формат : JPEG
Ширина : 5834 пикселя
Высота : 3000 пикселей
Цветовое пространство : YUV
Субдискретизация насыщенности : 4:2:0
Битовая глубина : 8 бит
Метод сжатия : С потерями
Размер потока : 3,65 Мбайт (100%)

Общее
Полное имя : E:\Аудиокниги\Джеймс Мэтью Барри\Питер Пэн и Венди (1983) (2012, Мелодия, MEL CD 50 02016)\scans\04.jpg
Формат : JPEG
Размер файла : 4,47 Мбайт

Изображения
Формат : JPEG
Ширина : 5834 пикселя
Высота : 3000 пикселей
Цветовое пространство : YUV
Субдискретизация насыщенности : 4:2:0
Битовая глубина : 8 бит
Метод сжатия : С потерями
Размер потока : 4,47 Мбайт (100%)

Общее
Полное имя : E:\Аудиокниги\Джеймс Мэтью Барри\Питер Пэн и Венди (1983) (2012, Мелодия, MEL CD 50 02016)\scans\05.jpg
Формат : JPEG
Размер файла : 8,19 Мбайт

Изображения
Формат : JPEG
Ширина : 3000 пикселей
Высота : 3000 пикселей
Цветовое пространство : YUV
Субдискретизация насыщенности : 4:2:0
Битовая глубина : 8 бит
Метод сжатия : С потерями
Размер потока : 8,19 Мбайт (100%)

Общее
Полное имя : E:\Аудиокниги\Джеймс Мэтью Барри\Питер Пэн и Венди (1983) (2012, Мелодия, MEL CD 50 02016)\scans\06.jpg
Формат : JPEG
Размер файла : 881 Кбайт

Изображения
Формат : JPEG
Ширина : 1096 пикселей
Высота : 1096 пикселей
Цветовое пространство : YUV
Субдискретизация насыщенности : 4:2:0
Битовая глубина : 8 бит
Метод сжатия : С потерями
Размер потока : 881 Кбайт (100%)

Общее
Полное имя : E:\Аудиокниги\Джеймс Мэтью Барри\Питер Пэн и Венди (1983) (2012, Мелодия, MEL CD 50 02016)\scans\07.jpg
Формат : JPEG
Размер файла : 8,17 Мбайт

Изображения
Формат : JPEG
Ширина : 3000 пикселей
Высота : 3000 пикселей
Цветовое пространство : YUV
Субдискретизация насыщенности : 4:2:0
Битовая глубина : 8 бит
Метод сжатия : С потерями
Размер потока : 8,17 Мбайт (100%)

Общее
Полное имя : E:\Аудиокниги\Джеймс Мэтью Барри\Питер Пэн и Венди (1983) (2012, Мелодия, MEL CD 50 02016)\scans\08.jpg
Формат : JPEG
Размер файла : 876 Кбайт

Изображения
Формат : JPEG
Ширина : 1096 пикселей
Высота : 1096 пикселей
Цветовое пространство : YUV
Субдискретизация насыщенности : 4:2:0
Битовая глубина : 8 бит
Метод сжатия : С потерями
Размер потока : 876 Кбайт (100%)
Время раздачи: Пн-Вс с 09:00 до 21:00
[NNM-Club.me]_Piter Pyen i Vendi (1983) (2012, Melodiya, MEL CD 50 02016).torrent
 Торрент: Платиновая раздача  Зарегистрирован
 
Скачать


Примагнититься
 Зарегистрирован:   27 Ноя 2014 17:00:14
 Размер:   266 MB  (
 Рейтинг:   4,5 (Голосов: 10)
 Поблагодарили:   27
 Проверка:   Оформление проверено модератором 29 Ноя 2014 16:09:16
Как cкачать  ·  Как раздать  ·  Правильно оформить  ·  Поднять ратио!  
Загрузка...
BobrovDE ®
Стаж: 11 лет 4 мес.
Сообщений: 907
Ratio: 18,016
Поблагодарили: 27495
100%
russia.gif
с раздачи ушёл полностью, кому интересно - поддерживайте
Показать сообщения:   
Начать новую тему   Ответить на тему    Торрент-трекер NNM-Club -> Аудио и Видео -> Аудиокниги (AAC) Часовой пояс: GMT + 3
Страница 1 из 1