Классический форум-трекер
canvas not supported
Нас вместе: 4 077 816

Динозавры: Гиганты Патагонии / Dinosaurs: Giants of Patagonia (2007) BDRip [H.264/720p]


 
 
RSS
Начать новую тему   Ответить на тему    Торрент-трекер NNM-Club -> Зарубежные TV-бренды -> Доисторический мир
Автор Сообщение
Отец Лоренцо ®
Uploader 1000+, Сталкер
Стаж: 7 лет 8 мес.
Сообщений: 4040
Ratio: 7393,141
Раздал: 1,0172 PB
Поблагодарили: 121761
100%
Откуда: Харьков, Украина
Динозавры: Гиганты Патагонии / Dinosaurs: Giants of Patagonia (2007) BDRip [H.264/720p]
Режиссер / Телекомпания: Марк Фафард / Sky High Entertainment, SVC
Страна: США
Год выпуска: 2007
Жанр: Документальный
Актеры: Дональд Сазерленд

Описание: Если бы не серия катаклизмов, начатая падением метеорита, наша планета до сих пор могла бы быть населена динозаврами.
Вслед за профессором Рудольфо Гориа, всемирно известным Аргентинским палеонтологом, зритель посетит места его важнейших открытий в Патагонии и вернется назад во времени, чтобы увидеть рождение этих невероятных созданий. Патагония подарила нам самое большое живое существо, когда-либо бродившее по Земле — огромного травоядного Аргентинозавра, а также и его врага Гигантозавра, двуногого хищника, который легко поспорит со знаменитым Т-Рексом.


Продолжительность: 00:40:34

Перевод: одноголосый закадровый (профессиональный)
Субтитры: отсутствуют

Формат файла: MKV
Видеокодек: MPEG-4 AVC/H.264
Битрейт видео: ~4 500 Kбит/с
Размер кадра: 1280 x 720
Качество видео: BDRip [720p]
Аудио #1: AC-3, 48.0 KHz, 2 ch, 192 Kbps, CBR (Russian)
Аудио #2: AC-3, 48.0 KHz, 6 ch, 448 Kbps, CBR (English)

Внимание! Данный релиз содержит 2D видео и воспроизводится всеми софтовыми плеерами (KMP, VLC, MPC-HE, GOM и т.д.) и бытовыми HD-плеерами.
Общее
Уникальный идентификатор : 242279633042780580779756729925525605790 (0xB6455C2A384A014FA3DE66193DA88D9E)
Полное имя : D:\Релизы\IMAX.Dinozavry.Giganty.Patagonii.2007.BDRip.720p.mkv
Формат : Matroska
Версия формата : Version 4 / Version 2
Размер файла : 1,46 Гбайт
Продолжительность : 40 м.
Общий поток : 5142 Кбит/сек
Название фильма : IMAX. Dinosaurs: Giants of Patagonia. 2007. BDRip (1080p) - Kinozal.TV-HD
Дата кодирования : UTC 2014-12-02 17:23:18
Программа кодирования : mkvmerge v7.0.0 ('Where We Going') 32bit built on Jun 9 2014 15:08:34
Библиотека кодирования : libebml v1.3.0 + libmatroska v1.4.1
DURATION : 00:40:34.208000000
NUMBER_OF_FRAMES : 76069
NUMBER_OF_BYTES : 136315648
_STATISTICS_WRITING_APP : mkvmerge v7.0.0 ('Where We Going') 32bit built on Jun 9 2014 15:08:34
_STATISTICS_WRITING_DATE_UTC : 2014-12-02 17:23:18
_STATISTICS_TAGS : BPS DURATION NUMBER_OF_FRAMES NUMBER_OF_BYTES

Видео
Идентификатор : 1
Формат : AVC
Формат/Информация : Advanced Video Codec
Профиль формата : Main@L3.1
Параметр CABAC формата : Да
Параметр ReFrames формата : 1 кадр
Идентификатор кодека : V_MPEG4/ISO/AVC
Продолжительность : 40 м.
Битрейт : 4500 Кбит/сек
Ширина : 1280 пикселей
Высота : 720 пикселей
Соотношение сторон : 16:9
Режим частоты кадров : Постоянный
Частота кадров : 23,976 кадра/сек
Цветовое пространство : YUV
Субдискретизация насыщенности : 4:2:0
Битовая глубина : 8 бит
Тип развёртки : Прогрессивная
Бит/(Пиксели*Кадры) : 0.204
Размер потока : 1,25 Гбайт (86%)
Библиотека кодирования : x264 core 65
Настройки программы : cabac=1 / ref=1 / deblock=1:0:0 / analyse=0x1:0x111 / me=hex / subme=6 / psy_rd=1.0:0.0 / mixed_ref=0 / me_range=16 / chroma_me=1 / trellis=0 / 8x8dct=0 / cqm=0 / deadzone=21,11 / chroma_qp_offset=-2 / threads=3 / nr=0 / decimate=1 / mbaff=0 / bframes=0 / keyint=240 / keyint_min=24 / scenecut=40(pre) / rc=2pass / bitrate=4500 / ratetol=1.0 / qcomp=0.60 / qpmin=10 / qpmax=51 / qpstep=4 / cplxblur=20.0 / qblur=0.5 / ip_ratio=1.40 / aq=1:1.00
Язык : English
Default : Да
Forced : Нет
Основные цвета : BT.709
Характеристики трансфера : BT.709
Коэффициенты матрицы : BT.709

Аудио #1
Идентификатор : 2
Формат : AC-3
Формат/Информация : Audio Coding 3
Расширение режима : CM (complete main)
Параметр Endianness формата : Big
Идентификатор кодека : A_AC3
Продолжительность : 40 м.
Вид битрейта : Постоянный
Битрейт : 192 Кбит/сек
Каналы : 2 канала
Расположение каналов : Front: L R
Частота : 48,0 КГц
Битовая глубина : 16 бит
Метод сжатия : С потерями
Размер потока : 55,7 Мбайт (4%)
Заголовок : VO (AC 2.0 192 kbps)
Язык : Russian
Default : Да
Forced : Нет

Аудио #2
Идентификатор : 3
Формат : AC-3
Формат/Информация : Audio Coding 3
Расширение режима : CM (complete main)
Параметр Endianness формата : Big
Идентификатор кодека : A_AC3
Продолжительность : 40 м.
Вид битрейта : Постоянный
Битрейт : 448 Кбит/сек
Каналы : 6 каналов
Расположение каналов : Front: L C R, Side: L R, LFE
Частота : 48,0 КГц
Битовая глубина : 16 бит
Метод сжатия : С потерями
Размер потока : 130 Мбайт (9%)
Заголовок : ~448 kbps
Язык : English
Default : Нет
Forced : Нет
Скриншоты:




Пожалуйста, не уходите с раздачи - помогите докачать другим. Если понравился релиз - жмите кнопку "Спасибо"! :приветствую:

Время раздачи: 24 / 7

"Динозавры: Гиганты Патагонии / Dinosaurs: Giants of Patagonia" на NoNaMe Club
[NNM-Club.me]_IMAX.Dinozavry.Giganty.Patagonii.2007.BDRip.720p.mkv.torrent
 Торрент: Платиновая раздача  Зарегистрирован
 
Скачать


Примагнититься
 Зарегистрирован:   03 Дек 2014 01:58:01
 Размер:   1,46 GB  (
 Рейтинг:   4,7 (Голосов: 83)
 Поблагодарили:   329
 Проверка:   Оформление проверено модератором 03 Дек 2014 02:11:51
Как cкачать  ·  Как раздать  ·  Правильно оформить  ·  Поднять ратио!  
IamFreeman
Стаж: 7 лет
Сообщений: 68
Ratio: 64,616
100%
а 3d раздача есть?
Отец Лоренцо ®
Uploader 1000+, Сталкер
Стаж: 7 лет 8 мес.
Сообщений: 4040
Ratio: 7393,141
Раздал: 1,0172 PB
Поблагодарили: 121761
100%
Откуда: Харьков, Украина
IamFreeman писал(а): Перейти к сообщению
а 3d раздача есть?

В описании раздачи есть ссылка на аналогичные релизы, выложенные ранее на NNM. Если вы не в курсе, эти ссылки делают специально для удобства тех, кому нужен этот релиз, но с перламутровыми пуговицами в другом качестве (т.е. в том числе и для вас).

PS. Есть BluRay 3D, есть BDRip 3D [1080p] HOU.
kolman67
Стаж: 4 года 10 мес.
Сообщений: 273
Ratio: 104,829
Раздал: 14,8 TB
Поблагодарили: 2126
100%
australia.gif
Спасибо !
Co-Pilot
Uploader 100+
 
Стаж: 8 лет 11 мес.
Сообщений: 1775
Ratio: 11K
Раздал: 341,1 TB
Поблагодарили: 641
100%
Откуда: СССР
ussr.gif
Голос за кадром Николая Дроздова?

_________________
Показать сообщения:   
Начать новую тему   Ответить на тему    Торрент-трекер NNM-Club -> Зарубежные TV-бренды -> Доисторический мир Часовой пояс: GMT + 3
Страница 1 из 1