Классический форум-трекер
canvas not supported
Нас вместе: 4 095 161

Jimi Hendrix - 6 albums (1971-1975) + bonus (2002) [APE|Lossless]<Rock, Blues/Psychedelic Rock>


 
 
RSS
Начать новую тему   Ответить на тему    Торрент-трекер NNM-Club -> Rock, Alternative, Punk, Metal -> Rock (Lossless)
Автор Сообщение
samopal records ®
Стаж: 5 лет 3 мес.
Сообщений: 1057
Ratio: 2152,482
Поблагодарили: 55821
100%
ussr.gif
Jimi Hendrix - 6 albums (1971-1975) + bonus (2002)

Год: 2002
Жанр: Rock, Blues/Psychedelic Rock
Продолжительность: 03:52:03
Compilation, Unofficial Release

Страна: Russia
Лейбл: CD-Maximum
Каталожный №: CDM 0902-1032/CDM 0902-1033/CDM 0902-1034

Кодек: APE (image+.cue+.log)
Битрейт: Lossless
Сканы: есть (из сети)
Автор рипа: digital2015
Треклист:
CD1 The Cry Of Love (1971)
01 Freedom
02 Drifting
03 Ezy Ryder
04 Night Bird Flying
05 My Friend
06 Straight Ahead
07 Astro Man
08 Angel
09 In From The Storm
10 Belly Button Window
11 Bleeding Heart
12 Highway Chile
13 Tax Free
14 Peter Gunn Catastrophe
15 Stepping Stone
16 Midnight
17 3 Little Bears
18 Beginning
19 Izabella
Bonus:
20 Stone Free
Продолжительность: 01:18:35
In The West
01 Rap Intro/The Queen/Sergeant Pepper`s Lonely Hearts Club Band
02 Little Wing
03 Lover Man
04 Johnny B. Goode
05 Blue Suede Shoes
06 Red House
07 Voodo Chile
Loose Ends
08 Come Down Hard On Me Baby
09 Blue Suede Shoes
10 Jam 292
11 The Stars That Play With Laughhing Sam Dice
12 Drifters Escape
13 Burning Desire
14 Born A Hootchie Kootchie Man
15 Electric Lady Land
Bonus
16 Can You See Me
Продолжительность: 01:18:35
Midnight Lightning
01 Trashman
02 Midnight Lightning
03 Hear My Train
04 Gypsy Boy
05 Blue Suede Shoes Blues
06 Machine Gun
07 Once I Had A Woman
08 Beginnings
Crash Landing
09 Message To Love
10 Somewhere Over The Rainbow
11 Crash Landing
12 Come Down Hard On Me
13 Peace In Mississippi
14 With The Power
15 Stone Free Again
16 Captain Coconut
Bonus
17 51st Anniversary
18 Highway Chile
19 Remember
Продолжительность: 01:18:29
Код:
Exact Audio Copy V1.0 beta 3 from 29. August 2011

EAC extraction logfile from 2. December 2014, 14:48

Jimi Hendrix / The Cry Of Love [1971] + War Heroes [1972] + 1 bonus

Used drive  : TSSTcorpCDDVDW SH-S223C   Adapter: 3  ID: 0

Read mode               : Secure
Utilize accurate stream : Yes
Defeat audio cache      : Yes
Make use of C2 pointers : No

Read offset correction                      : 697
Overread into Lead-In and Lead-Out          : No
Fill up missing offset samples with silence : Yes
Delete leading and trailing silent blocks   : No
Null samples used in CRC calculations       : Yes
Used interface                              : Native Win32 interface for Win NT & 2000

Used output format : Internal WAV Routines
Sample format      : 44.100 Hz; 16 Bit; Stereo

TOC of the extracted CD

     Track |   Start  |  Length  | Start sector | End sector
    ---------------------------------------------------------
        1  |  0:00.00 |  3:27.09 |         0    |    15533
        2  |  3:27.09 |  3:49.18 |     15534    |    32726
        3  |  7:16.27 |  4:10.09 |     32727    |    51485
        4  | 11:26.36 |  3:52.18 |     51486    |    68903
        5  | 15:18.54 |  4:37.66 |     68904    |    89744
        6  | 19:56.45 |  4:42.53 |     89745    |   110947
        7  | 24:39.23 |  3:36.33 |    110948    |   127180
        8  | 28:15.56 |  4:25.11 |    127181    |   147066
        9  | 32:40.67 |  3:41.37 |    147067    |   163678
       10  | 36:22.29 |  3:39.10 |    163679    |   180113
       11  | 40:01.39 |  3:15.71 |    180114    |   194809
       12  | 43:17.35 |  3:30.53 |    194810    |   210612
       13  | 46:48.13 |  4:55.07 |    210613    |   232744
       14  | 51:43.20 |  2:20.19 |    232745    |   243263
       15  | 54:03.39 |  4:07.68 |    243264    |   261856
       16  | 58:11.32 |  5:31.73 |    261857    |   286754
       17  | 63:43.30 |  4:11.52 |    286755    |   305631
       18  | 67:55.07 |  4:11.35 |    305632    |   324491
       19  | 72:06.42 |  2:53.08 |    324492    |   337474
       20  | 74:59.50 |  3:35.40 |    337475    |   353639

Range status and errors

Selected range

     Filename E:\Для разадачи\Jimi Hendrix - The Cry Of Love+War Heroes [CD] - 2002 (lossless)\01. Jimi Hendrix - The Cry Of Love [1971] + War Heroes [1972] + 1 bonus.wav

     Peak level 100.0 %
     Extraction speed 3.5 X
     Range quality 100.0 %
     Test CRC CE8D7435
     Copy CRC CE8D7435
     Copy OK

No errors occurred

AccurateRip summary

Track  1  cannot be verified as accurate (confidence 7)  [38BD5F5F], AccurateRip returned [040D17C5]  (AR v2)
Track  2  cannot be verified as accurate (confidence 7)  [8D7AAB3A], AccurateRip returned [5440EE1F]  (AR v2)
Track  3  cannot be verified as accurate (confidence 7)  [3E82D4D1], AccurateRip returned [C3518EB2]  (AR v2)
Track  4  cannot be verified as accurate (confidence 7)  [DF4FE6C7], AccurateRip returned [6CC65D11]  (AR v2)
Track  5  cannot be verified as accurate (confidence 7)  [71545644], AccurateRip returned [518DBC4A]  (AR v2)
Track  6  cannot be verified as accurate (confidence 7)  [4B41A819], AccurateRip returned [18BB85D8]  (AR v2)
Track  7  cannot be verified as accurate (confidence 7)  [1EDF1C90], AccurateRip returned [4FF26F6E]  (AR v2)
Track  8  cannot be verified as accurate (confidence 6)  [8A20E596], AccurateRip returned [7F601A66]  (AR v2)
Track  9  cannot be verified as accurate (confidence 7)  [252A3817], AccurateRip returned [857B60D5]  (AR v2)
Track 10  cannot be verified as accurate (confidence 7)  [16980AB6], AccurateRip returned [6AD05C9A]  (AR v2)
Track 11  cannot be verified as accurate (confidence 8)  [7FB59C29], AccurateRip returned [AEC8EC6B]  (AR v2)
Track 12  cannot be verified as accurate (confidence 8)  [6BA2B14E], AccurateRip returned [36543878]  (AR v2)
Track 13  cannot be verified as accurate (confidence 8)  [736F2053], AccurateRip returned [AC954117]  (AR v2)
Track 14  cannot be verified as accurate (confidence 8)  [D524A549], AccurateRip returned [725CCC27]  (AR v2)
Track 15  cannot be verified as accurate (confidence 8)  [1E47BB8A], AccurateRip returned [1BFF88C5]  (AR v2)
Track 16  cannot be verified as accurate (confidence 8)  [29D1543D], AccurateRip returned [D375C703]  (AR v2)
Track 17  cannot be verified as accurate (confidence 8)  [2A997BE5], AccurateRip returned [3DE1907E]  (AR v2)
Track 18  cannot be verified as accurate (confidence 6)  [B4227BED], AccurateRip returned [691498B4]  (AR v2)
Track 19  cannot be verified as accurate (confidence 7)  [2D324120], AccurateRip returned [335EEDDC]  (AR v2)
Track 20  cannot be verified as accurate (confidence 5)  [4C025D95], AccurateRip returned [2FAA1215]  (AR v2)

No tracks could be verified as accurate
You may have a different pressing from the one(s) in the database

End of status report

---- CUETools DB Plugin V2.1.3

[CTDB TOCID: soynCM1sC48_7_FxPlQ3cukOqFw-] disk not present in database, Submit result: soynCM1sC48_7_FxPlQ3cukOqFw- has been uploaded

==== Log checksum 474F386CB194F2E0C9732C07764952FD8294C986CCDEF8B2BACADDA535E272D7 ====
Код:
Exact Audio Copy V0.99 prebeta 5 from 4. May 2009

EAC extraction logfile from 2. December 2014, 18:00

Jimi Hendrix / In The West+Loose Ends

Used drive  : SONY    CD-RW  CRX230ED   Adapter: 1  ID: 1

Read mode               : Secure
Utilize accurate stream : Yes
Defeat audio cache      : Yes
Make use of C2 pointers : No

Read offset correction                      : 6
Overread into Lead-In and Lead-Out          : No
Fill up missing offset samples with silence : Yes
Delete leading and trailing silent blocks   : No
Null samples used in CRC calculations       : Yes
Used interface                              : Native Win32 interface for Win NT & 2000

Used output format : Internal WAV Routines
Sample format      : 44.100 Hz; 16 Bit; Stereo

TOC of the extracted CD

     Track |   Start  |  Length  | Start sector | End sector
    ---------------------------------------------------------
        1  |  0:00.00 |  3:59.04 |         0    |    17928
        2  |  3:59.04 |  3:15.74 |     17929    |    32627
        3  |  7:15.03 |  3:16.33 |     32628    |    47360
        4  | 10:31.36 |  4:41.46 |     47361    |    68481
        5  | 15:13.07 |  4:28.58 |     68482    |    88639
        6  | 19:41.65 | 13:08.43 |     88640    |   147782
        7  | 32:50.33 |  7:55.35 |    147783    |   183442
        8  | 40:45.68 |  3:00.12 |    183443    |   196954
        9  | 43:46.05 |  3:58.31 |    196955    |   214835
       10  | 47:44.36 |  3:47.05 |    214836    |   231865
       11  | 51:31.41 |  4:21.51 |    231866    |   251491
       12  | 55:53.17 |  3:02.41 |    251492    |   265182
       13  | 58:55.58 |  9:27.63 |    265183    |   307770
       14  | 68:23.46 |  5:58.66 |    307771    |   334686
       15  | 74:22.37 |  1:34.05 |    334687    |   341741
       16  | 75:56.42 |  2:32.57 |    341742    |   353198

Range status and errors

Selected range

     Filename D:\Jimi Hendrix - In The West+Loose Ends [CD] - 2002 (lossless)\01. Jimi Hendrix - In The West+Loose Ends.wav

     Peak level 100.0 %
     Range quality 99.9 %
     Test CRC FF7E1298
     Copy CRC FF7E1298
     Copy OK

No errors occurred

End of status report
Код:
Exact Audio Copy V0.99 prebeta 5 from 4. May 2009

EAC extraction logfile from 2. December 2014, 12:20

Jimi Hendrix / Midnight Lightning/Crash Landing

Used drive  : SONY    CD-RW  CRX230ED   Adapter: 1  ID: 1

Read mode               : Secure
Utilize accurate stream : Yes
Defeat audio cache      : Yes
Make use of C2 pointers : No

Read offset correction                      : 6
Overread into Lead-In and Lead-Out          : No
Fill up missing offset samples with silence : Yes
Delete leading and trailing silent blocks   : No
Null samples used in CRC calculations       : Yes
Used interface                              : Native Win32 interface for Win NT & 2000

Used output format : Internal WAV Routines
Sample format      : 44.100 Hz; 16 Bit; Stereo

TOC of the extracted CD

     Track |   Start  |  Length  | Start sector | End sector
    ---------------------------------------------------------
        1  |  0:00.00 |  3:17.68 |         0    |    14842
        2  |  3:17.68 |  3:51.40 |     14843    |    32207
        3  |  7:09.33 |  5:44.40 |     32208    |    58047
        4  | 12:53.73 |  3:45.25 |     58048    |    74947
        5  | 16:39.23 |  3:29.67 |     74948    |    90689
        6  | 20:09.15 |  7:28.44 |     90690    |   124333
        7  | 27:37.59 |  5:22.17 |    124334    |   148500
        8  | 33:00.01 |  3:09.02 |    148501    |   162677
        9  | 36:09.03 |  3:14.58 |    162678    |   177285
       10  | 39:23.61 |  3:31.28 |    177286    |   193138
       11  | 42:55.14 |  4:15.44 |    193139    |   212307
       12  | 47:10.58 |  3:17.48 |    212308    |   227130
       13  | 50:28.31 |  4:20.71 |    227131    |   246701
       14  | 54:49.27 |  3:38.50 |    246702    |   263101
       15  | 58:28.02 |  3:26.22 |    263102    |   278573
       16  | 61:54.24 |  4:08.36 |    278574    |   297209
       17  | 66:02.60 |  3:15.60 |    297210    |   311894
       18  | 69:18.45 |  3:32.11 |    311895    |   327805
       19  | 72:50.56 |  2:48.16 |    327806    |   340421

Range status and errors

Selected range

     Filename D:\Jimi Hendrix - Midnight Lighting+Crash Landing - 2002 (lossless)\Jimi Hendrix - Midnight Lightning Crash Landing.wav

     Peak level 100.0 %
     Range quality 100.0 %
     Test CRC B0ECC62F
     Copy CRC B0ECC62F
     Copy OK

No errors occurred

End of status report
Код:
-----------------------

DON'T MODIFY THIS FILE

-----------------------

PERFORMER: auCDtect Task Manager, ver. 1.6.0 RC1 build 1.6.0.1
Copyright (c) 2008-2010 y-soft. All rights reserved
http://y-soft.org

ANALYZER: auCDtect: CD records authenticity detector, version 0.8.2
Copyright (c) 2004 Oleg Berngardt. All rights reserved.
Copyright (c) 2004 Alexander Djourik. All rights reserved.

FILE: 01. Jimi Hendrix - The Cry Of Love [1971] + War Heroes [1972] + 1 bonus.ape
  Size: 531165008 Hash: 850FBDD5C5C2E83BC53EDD16B38EED34 Accuracy: -m0
  Conclusion: CDDA 100%
  Signature: 446225AB99B7BD5D432302CB681FEDD9163A7385

Код:
-----------------------

DON'T MODIFY THIS FILE

-----------------------

PERFORMER: auCDtect Task Manager, ver. 1.6.0 RC1 build 1.6.0.1
Copyright (c) 2008-2010 y-soft. All rights reserved
http://y-soft.org

ANALYZER: auCDtect: CD records authenticity detector, version 0.8.2
Copyright (c) 2004 Oleg Berngardt. All rights reserved.
Copyright (c) 2004 Alexander Djourik. All rights reserved.

FILE: 01. Jimi Hendrix - In The West+Loose Ends.ape
  Size: 507702832 Hash: 61DD3AED2EDBCBEB1022921FD6EC5068 Accuracy: -m0
  Conclusion: CDDA 100%
  Signature: 8E43AE7624392E3A3960995D59B17F66F146CE88

Код:
-----------------------

DON'T MODIFY THIS FILE

-----------------------

PERFORMER: auCDtect Task Manager, ver. 1.6.0 RC1 build 1.6.0.1
Copyright (c) 2008-2010 y-soft. All rights reserved
http://y-soft.org

ANALYZER: auCDtect: CD records authenticity detector, version 0.8.2
Copyright (c) 2004 Oleg Berngardt. All rights reserved.
Copyright (c) 2004 Alexander Djourik. All rights reserved.

FILE: 01. Jimi Hendrix - Midnight Lightning Crash Landing.ape
  Size: 521032972 Hash: 78391F2B622CF55EC22E49DC76CFC11A Accuracy: -m0
  Conclusion: CDDA 100%
  Signature: 3ADA2FF3908557A34D6976546D3F8760756E65E7

Время раздачи: c 05:00 до 20:00 (время Московское)



Поглощение/вытеснение
Только с согласия релизера

Bigbeer
[NNM-Club.me]_Jimi Hendrix - 6 albums (1971-1975) + bonus [3CD] - 2002 (lossless).torrent
 Торрент: Платиновая раздача  Зарегистрирован
 
Скачать


Примагнититься
 Зарегистрирован:   03 Дек 2014 06:51:16
 Размер:   1,45 GB  (
 Рейтинг:   4,9 (Голосов: 20)
 Поблагодарили:   74
 Проверка:   Оформление проверено модератором 03 Дек 2014 12:48:29
Как cкачать  ·  Как раздать  ·  Правильно оформить  ·  Поднять ратио!  
Показать сообщения:   
Начать новую тему   Ответить на тему    Торрент-трекер NNM-Club -> Rock, Alternative, Punk, Metal -> Rock (Lossless) Часовой пояс: GMT + 3
Страница 1 из 1