Классический форум-трекер
canvas not supported
Нас вместе: 4 093 772

Tyler Bates - Хранители / Watchmen (2009) [AAC|WEB-DL|256 кб/с]<Score>


 
 
RSS
Начать новую тему   Ответить на тему    Торрент-трекер NNM-Club -> Аудио и Видео -> Музыка (AAC)
Автор Сообщение
igoryek ®
Стаж: 11 лет
Сообщений: 347
Ratio: 50,904
Поблагодарили: 22889
100%
Tyler Bates - Хранители / Watchmen (2009)
Год: 2009
Жанр: Score
Продолжительность: 00:50:41

Кодек: AAC
Битрейт: 256 кб/с
Тип битрейта: VBR



Треклист:
01 - Rescue Mission
02 - Don't Get Too Misty Eyed
03 - Tonight the Comedian Died
04 - Silk Spectre
05 - We'll Live Longer
06 - You Quit!
07 - Only Two Names Remain
08 - The American Dream)
09 - Edward Blake - The Comedian
10 - The Last Laugh
11 - Prison Fight
12 - Just Look Around You
13 - Dan's Apocalyptic Dream
14 - Who Murdered Hollis Mason?
15 - What About Janie Slater?
16 - I'll Tell You About Rorschach
17 - Countdown
18 - It was Me
19 - All That is Good
20 - Requiem
21 - I Love You
22 - Prison Fight (Philip Steir / Phat Prison Phight Remix)
Код:

General
Complete name                            : D:\Sound\Music\Soundtracks\Watchmen\Tyler Bates - Watchmen - Score (2009) [AAC]\01 Rescue Mission.m4a
Format                                   : MPEG-4
Format profile                           : Apple audio with iTunes info
Codec ID                                 : M4A
File size                                : 4.94 MiB
Duration                                 : 2mn 12s
Overall bit rate mode                    : Variable
Overall bit rate                         : 312 Kbps
Album                                    : Watchmen (Original Motion Picture Score)
Album/Performer                          : Tyler Bates
Part/Position                            : 1
Part/Total                               : 1
Track name                               : Rescue Mission
Track name/Position                      : 1
Track name/Total                         : 22
Performer                                : Tyler Bates
Composer                                 : Tyler Bates
Genre                                    : Soundtrack
ContentType                              : Music
Recorded date                            : UTC 2009-02-23 08:00:00
Encoded date                             : UTC 1982-07-30 20:23:40
Tagged date                              : UTC 2014-12-08 22:04:05
Copyright                                : ℗ 2009 Warner Bros. Entertainment Inc.
Cover                                    : Yes
Rating                                   : None
AppleStoreAccount                        : wenhui324@gmail.com
ownr                                     : louis geen
AppleStoreCatalogID                      : 337976853
AlbumTitleID                             : 83093776
cmID                                     : 83093776
PlayListID                               : 337976795
GenreID                                  : 16
AppleStoreCountry                        : United States
PurchaseDate                             : 2014-12-08 14:02:30
Vendor                                   : Warner:isrc:USRE10900092

Audio
ID                                       : 1
Format                                   : AAC
Format/Info                              : Advanced Audio Codec
Format profile                           : LC
Codec ID                                 : 40
Duration                                 : 2mn 12s
Bit rate mode                            : Variable
Bit rate                                 : 277 Kbps
Nominal bit rate                         : 256 Kbps
Maximum bit rate                         : 403 Kbps
Channel(s)                               : 2 channels
Channel positions                        : Front: L R
Sampling rate                            : 44.1 KHz
Compression mode                         : Lossy
Stream size                              : 4.39 MiB (89%)
Language                                 : English
Encoded date                             : UTC 1982-07-30 20:23:40
Tagged date                              : UTC 2014-12-08 22:04:05

General
Complete name                            : D:\Sound\Music\Soundtracks\Watchmen\Tyler Bates - Watchmen - Score (2009) [AAC]\02 Don't Get Too Misty Eyed.m4a
Format                                   : MPEG-4
Format profile                           : Apple audio with iTunes info
Codec ID                                 : M4A
File size                                : 3.46 MiB
Duration                                 : 1mn 35s
Overall bit rate mode                    : Variable
Overall bit rate                         : 304 Kbps
Album                                    : Watchmen (Original Motion Picture Score)
Album/Performer                          : Tyler Bates
Part/Position                            : 1
Part/Total                               : 1
Track name                               : Don't Get Too Misty Eyed
Track name/Position                      : 2
Track name/Total                         : 22
Performer                                : Tyler Bates
Composer                                 : Tyler Bates
Genre                                    : Soundtrack
ContentType                              : Music
Recorded date                            : UTC 2009-02-23 08:00:00
Tagged date                              : UTC 2014-12-08 22:02:39
Copyright                                : ℗ 2009 Warner Bros. Entertainment Inc.
Cover                                    : Yes
Rating                                   : None
AppleStoreAccount                        : wenhui324@gmail.com
ownr                                     : louis geen
AppleStoreCatalogID                      : 337976865
AlbumTitleID                             : 83093776
cmID                                     : 83093776
PlayListID                               : 337976795
GenreID                                  : 16
AppleStoreCountry                        : United States
PurchaseDate                             : 2014-12-08 14:02:30
Vendor                                   : Warner:isrc:USRE10900093

Audio
ID                                       : 1
Format                                   : AAC
Format/Info                              : Advanced Audio Codec
Format profile                           : LC
Codec ID                                 : 40
Duration                                 : 1mn 35s
Bit rate mode                            : Variable
Bit rate                                 : 256 Kbps
Maximum bit rate                         : 304 Kbps
Channel(s)                               : 2 channels
Channel positions                        : Front: L R
Sampling rate                            : 44.1 KHz
Compression mode                         : Lossy
Stream size                              : 2.92 MiB (84%)
Language                                 : English
Tagged date                              : UTC 2014-12-08 22:02:39

General
Complete name                            : D:\Sound\Music\Soundtracks\Watchmen\Tyler Bates - Watchmen - Score (2009) [AAC]\03 Tonight the Comedian Died.m4a
Format                                   : MPEG-4
Format profile                           : Apple audio with iTunes info
Codec ID                                 : M4A
File size                                : 5.55 MiB
Duration                                 : 2mn 42s
Overall bit rate mode                    : Variable
Overall bit rate                         : 286 Kbps
Album                                    : Watchmen (Original Motion Picture Score)
Album/Performer                          : Tyler Bates
Part/Position                            : 1
Part/Total                               : 1
Track name                               : Tonight the Comedian Died
Track name/Position                      : 3
Track name/Total                         : 22
Performer                                : Tyler Bates
Composer                                 : Tyler Bates
Genre                                    : Soundtrack
ContentType                              : Music
Recorded date                            : UTC 2009-02-23 08:00:00
Tagged date                              : UTC 2014-12-08 22:08:34
Copyright                                : ℗ 2009 Warner Bros. Entertainment Inc.
Cover                                    : Yes
Rating                                   : None
AppleStoreAccount                        : wenhui324@gmail.com
ownr                                     : louis geen
AppleStoreCatalogID                      : 337976872
AlbumTitleID                             : 83093776
cmID                                     : 83093776
PlayListID                               : 337976795
GenreID                                  : 16
AppleStoreCountry                        : United States
PurchaseDate                             : 2014-12-08 14:02:30
Vendor                                   : Warner:isrc:USRE10900094

Audio
ID                                       : 1
Format                                   : AAC
Format/Info                              : Advanced Audio Codec
Format profile                           : LC
Codec ID                                 : 40
Duration                                 : 2mn 42s
Bit rate mode                            : Variable
Bit rate                                 : 256 Kbps
Maximum bit rate                         : 390 Kbps
Channel(s)                               : 2 channels
Channel positions                        : Front: L R
Sampling rate                            : 44.1 KHz
Compression mode                         : Lossy
Stream size                              : 4.99 MiB (90%)
Language                                 : English
Tagged date                              : UTC 2014-12-08 22:08:34

General
Complete name                            : D:\Sound\Music\Soundtracks\Watchmen\Tyler Bates - Watchmen - Score (2009) [AAC]\04 Silk Spectre.m4a
Format                                   : MPEG-4
Format profile                           : Apple audio with iTunes info
Codec ID                                 : M4A
File size                                : 2.55 MiB
Duration                                 : 58s 584ms
Overall bit rate mode                    : Variable
Overall bit rate                         : 365 Kbps
Album                                    : Watchmen (Original Motion Picture Score)
Album/Performer                          : Tyler Bates
Part/Position                            : 1
Part/Total                               : 1
Track name                               : Silk Spectre
Track name/Position                      : 4
Track name/Total                         : 22
Performer                                : Tyler Bates
Composer                                 : Tyler Bates
Genre                                    : Soundtrack
ContentType                              : Music
Recorded date                            : UTC 2009-02-23 08:00:00
Encoded date                             : UTC 1990-01-08 09:07:24
Tagged date                              : UTC 2014-12-08 22:02:59
Copyright                                : ℗ 2009 Warner Bros. Entertainment Inc.
Cover                                    : Yes
Rating                                   : None
AppleStoreAccount                        : wenhui324@gmail.com
ownr                                     : louis geen
AppleStoreCatalogID                      : 337976896
AlbumTitleID                             : 83093776
cmID                                     : 83093776
PlayListID                               : 337976795
GenreID                                  : 16
AppleStoreCountry                        : United States
PurchaseDate                             : 2014-12-08 14:02:30
Vendor                                   : Warner:isrc:USRE10900095

Audio
ID                                       : 1
Format                                   : AAC
Format/Info                              : Advanced Audio Codec
Format profile                           : LC
Codec ID                                 : 40
Duration                                 : 58s 584ms
Bit rate mode                            : Variable
Bit rate                                 : 288 Kbps
Nominal bit rate                         : 256 Kbps
Maximum bit rate                         : 310 Kbps
Channel(s)                               : 2 channels
Channel positions                        : Front: L R
Sampling rate                            : 44.1 KHz
Compression mode                         : Lossy
Stream size                              : 2.01 MiB (79%)
Language                                 : English
Encoded date                             : UTC 1990-01-08 09:07:24
Tagged date                              : UTC 2014-12-08 22:02:59

General
Complete name                            : D:\Sound\Music\Soundtracks\Watchmen\Tyler Bates - Watchmen - Score (2009) [AAC]\05 We'll Live Longer.m4a
Format                                   : MPEG-4
Format profile                           : Apple audio with iTunes info
Codec ID                                 : M4A
File size                                : 2.23 MiB
Duration                                 : 56s 610ms
Overall bit rate mode                    : Variable
Overall bit rate                         : 331 Kbps
Album                                    : Watchmen (Original Motion Picture Score)
Album/Performer                          : Tyler Bates
Part/Position                            : 1
Part/Total                               : 1
Track name                               : We'll Live Longer
Track name/Position                      : 5
Track name/Total                         : 22
Performer                                : Tyler Bates
Composer                                 : Tyler Bates
Genre                                    : Soundtrack
ContentType                              : Music
Recorded date                            : UTC 2009-02-23 08:00:00
Tagged date                              : UTC 2014-12-08 22:06:53
Copyright                                : ℗ 2009 Warner Bros. Entertainment Inc.
Cover                                    : Yes
Rating                                   : None
AppleStoreAccount                        : wenhui324@gmail.com
ownr                                     : louis geen
AppleStoreCatalogID                      : 337976919
AlbumTitleID                             : 83093776
cmID                                     : 83093776
PlayListID                               : 337976795
GenreID                                  : 16
AppleStoreCountry                        : United States
PurchaseDate                             : 2014-12-08 14:02:30
Vendor                                   : Warner:isrc:USRE10900096

Audio
ID                                       : 1
Format                                   : AAC
Format/Info                              : Advanced Audio Codec
Format profile                           : LC
Codec ID                                 : 40
Duration                                 : 56s 610ms
Bit rate mode                            : Variable
Bit rate                                 : 256 Kbps
Maximum bit rate                         : 384 Kbps
Channel(s)                               : 2 channels
Channel positions                        : Front: L R
Sampling rate                            : 44.1 KHz
Compression mode                         : Lossy
Stream size                              : 1.69 MiB (76%)
Language                                 : English
Tagged date                              : UTC 2014-12-08 22:06:53

General
Complete name                            : D:\Sound\Music\Soundtracks\Watchmen\Tyler Bates - Watchmen - Score (2009) [AAC]\06 You Quit!.m4a
Format                                   : MPEG-4
Format profile                           : Apple audio with iTunes info
Codec ID                                 : M4A
File size                                : 1.76 MiB
Duration                                 : 39s 219ms
Overall bit rate mode                    : Variable
Overall bit rate                         : 377 Kbps
Album                                    : Watchmen (Original Motion Picture Score)
Album/Performer                          : Tyler Bates
Part/Position                            : 1
Part/Total                               : 1
Track name                               : You Quit!
Track name/Position                      : 6
Track name/Total                         : 22
Performer                                : Tyler Bates
Composer                                 : Tyler Bates
Genre                                    : Soundtrack
ContentType                              : Music
Recorded date                            : UTC 2009-02-23 08:00:00
Tagged date                              : UTC 2014-12-08 22:04:34
Copyright                                : ℗ 2009 Warner Bros. Entertainment Inc.
Cover                                    : Yes
Rating                                   : None
AppleStoreAccount                        : wenhui324@gmail.com
ownr                                     : louis geen
AppleStoreCatalogID                      : 337976921
AlbumTitleID                             : 83093776
cmID                                     : 83093776
PlayListID                               : 337976795
GenreID                                  : 16
AppleStoreCountry                        : United States
PurchaseDate                             : 2014-12-08 14:02:30
Vendor                                   : Warner:isrc:USRE10900097

Audio
ID                                       : 1
Format                                   : AAC
Format/Info                              : Advanced Audio Codec
Format profile                           : LC
Codec ID                                 : 40
Duration                                 : 39s 219ms
Bit rate mode                            : Variable
Bit rate                                 : 256 Kbps
Maximum bit rate                         : 393 Kbps
Channel(s)                               : 2 channels
Channel positions                        : Front: L R
Sampling rate                            : 44.1 KHz
Compression mode                         : Lossy
Stream size                              : 1.22 MiB (69%)
Language                                 : English
Tagged date                              : UTC 2014-12-08 22:04:34

General
Complete name                            : D:\Sound\Music\Soundtracks\Watchmen\Tyler Bates - Watchmen - Score (2009) [AAC]\07 Only Two Names Remain.m4a
Format                                   : MPEG-4
Format profile                           : Apple audio with iTunes info
Codec ID                                 : M4A
File size                                : 3.52 MiB
Duration                                 : 1mn 39s
Overall bit rate mode                    : Variable
Overall bit rate                         : 296 Kbps
Album                                    : Watchmen (Original Motion Picture Score)
Album/Performer                          : Tyler Bates
Part/Position                            : 1
Part/Total                               : 1
Track name                               : Only Two Names Remain
Track name/Position                      : 7
Track name/Total                         : 22
Performer                                : Tyler Bates
Composer                                 : Tyler Bates
Genre                                    : Soundtrack
ContentType                              : Music
Recorded date                            : UTC 2009-02-23 08:00:00
Encoded date                             : UTC 1983-08-23 23:16:28
Tagged date                              : UTC 2014-12-08 22:05:54
Copyright                                : ℗ 2009 Warner Bros. Entertainment Inc.
Cover                                    : Yes
Rating                                   : None
AppleStoreAccount                        : wenhui324@gmail.com
ownr                                     : louis geen
AppleStoreCatalogID                      : 337976922
AlbumTitleID                             : 83093776
cmID                                     : 83093776
PlayListID                               : 337976795
GenreID                                  : 16
AppleStoreCountry                        : United States
PurchaseDate                             : 2014-12-08 14:02:30
Vendor                                   : Warner:isrc:USRE10900098

Audio
ID                                       : 1
Format                                   : AAC
Format/Info                              : Advanced Audio Codec
Format profile                           : LC
Codec ID                                 : 40
Duration                                 : 1mn 39s
Bit rate mode                            : Variable
Bit rate                                 : 256 Kbps
Maximum bit rate                         : 339 Kbps
Channel(s)                               : 2 channels
Channel positions                        : Front: L R
Sampling rate                            : 44.1 KHz
Compression mode                         : Lossy
Stream size                              : 2.97 MiB (84%)
Language                                 : English
Encoded date                             : UTC 1983-08-23 23:16:28
Tagged date                              : UTC 2014-12-08 22:05:54

General
Complete name                            : D:\Sound\Music\Soundtracks\Watchmen\Tyler Bates - Watchmen - Score (2009) [AAC]\08 The American Dream).m4a
Format                                   : MPEG-4
Format profile                           : Apple audio with iTunes info
Codec ID                                 : M4A
File size                                : 4.18 MiB
Duration                                 : 1mn 56s
Overall bit rate mode                    : Variable
Overall bit rate                         : 300 Kbps
Album                                    : Watchmen (Original Motion Picture Score)
Album/Performer                          : Tyler Bates
Part/Position                            : 1
Part/Total                               : 1
Track name                               : The American Dream)
Track name/Position                      : 8
Track name/Total                         : 22
Performer                                : Tyler Bates
Composer                                 : Tyler Bates
Genre                                    : Soundtrack
ContentType                              : Music
Recorded date                            : UTC 2009-02-23 08:00:00
Encoded date                             : UTC 1999-08-04 15:12:12
Tagged date                              : UTC 2014-12-08 22:08:35
Copyright                                : ℗ 2009 Warner Bros. Entertainment Inc.
Cover                                    : Yes
Rating                                   : None
AppleStoreAccount                        : wenhui324@gmail.com
ownr                                     : louis geen
AppleStoreCatalogID                      : 337976924
AlbumTitleID                             : 83093776
cmID                                     : 83093776
PlayListID                               : 337976795
GenreID                                  : 16
AppleStoreCountry                        : United States
PurchaseDate                             : 2014-12-08 14:02:30
Title/Sort                               : American Dream)
Vendor                                   : Warner:isrc:USRE10900099

Audio
ID                                       : 1
Format                                   : AAC
Format/Info                              : Advanced Audio Codec
Format profile                           : LC
Codec ID                                 : 40
Duration                                 : 1mn 56s
Bit rate mode                            : Variable
Bit rate                                 : 256 Kbps
Maximum bit rate                         : 309 Kbps
Channel(s)                               : 2 channels
Channel positions                        : Front: L R
Sampling rate                            : 44.1 KHz
Compression mode                         : Lossy
Stream size                              : 3.63 MiB (87%)
Language                                 : English
Encoded date                             : UTC 1999-08-04 15:12:12
Tagged date                              : UTC 2014-12-08 22:08:35

General
Complete name                            : D:\Sound\Music\Soundtracks\Watchmen\Tyler Bates - Watchmen - Score (2009) [AAC]\09 Edward Blake - The Comedian.m4a
Format                                   : MPEG-4
Format profile                           : Apple audio with iTunes info
Codec ID                                 : M4A
File size                                : 5.43 MiB
Duration                                 : 2mn 40s
Overall bit rate mode                    : Variable
Overall bit rate                         : 284 Kbps
Album                                    : Watchmen (Original Motion Picture Score)
Album/Performer                          : Tyler Bates
Part/Position                            : 1
Part/Total                               : 1
Track name                               : Edward Blake - The Comedian
Track name/Position                      : 9
Track name/Total                         : 22
Performer                                : Tyler Bates
Composer                                 : Tyler Bates
Genre                                    : Soundtrack
ContentType                              : Music
Recorded date                            : UTC 2009-02-23 08:00:00
Tagged date                              : UTC 2014-12-08 22:13:08
Copyright                                : ℗ 2009 Warner Bros. Entertainment Inc.
Cover                                    : Yes
Rating                                   : None
AppleStoreAccount                        : wenhui324@gmail.com
ownr                                     : louis geen
AppleStoreCatalogID                      : 337976939
AlbumTitleID                             : 83093776
cmID                                     : 83093776
PlayListID                               : 337976795
GenreID                                  : 16
AppleStoreCountry                        : United States
PurchaseDate                             : 2014-12-08 14:02:30
Vendor                                   : Warner:isrc:USRE10900100

Audio
ID                                       : 1
Format                                   : AAC
Format/Info                              : Advanced Audio Codec
Format profile                           : LC
Codec ID                                 : 40
Duration                                 : 2mn 40s
Bit rate mode                            : Variable
Bit rate                                 : 256 Kbps
Maximum bit rate                         : 334 Kbps
Channel(s)                               : 2 channels
Channel positions                        : Front: L R
Sampling rate                            : 44.1 KHz
Compression mode                         : Lossy
Stream size                              : 4.87 MiB (90%)
Language                                 : English
Tagged date                              : UTC 2014-12-08 22:13:08

General
Complete name                            : D:\Sound\Music\Soundtracks\Watchmen\Tyler Bates - Watchmen - Score (2009) [AAC]\10 The Last Laugh.m4a
Format                                   : MPEG-4
Format profile                           : Apple audio with iTunes info
Codec ID                                 : M4A
File size                                : 2.36 MiB
Duration                                 : 57s 469ms
Overall bit rate mode                    : Variable
Overall bit rate                         : 344 Kbps
Album                                    : Watchmen (Original Motion Picture Score)
Album/Performer                          : Tyler Bates
Part/Position                            : 1
Part/Total                               : 1
Track name                               : The Last Laugh
Track name/Position                      : 10
Track name/Total                         : 22
Performer                                : Tyler Bates
Composer                                 : Tyler Bates
Genre                                    : Soundtrack
ContentType                              : Music
Recorded date                            : UTC 2009-02-23 08:00:00
Encoded date                             : UTC 1975-02-20 01:52:12
Tagged date                              : UTC 2014-12-08 22:08:43
Copyright                                : ℗ 2009 Warner Bros. Entertainment Inc.
Cover                                    : Yes
Rating                                   : None
AppleStoreAccount                        : wenhui324@gmail.com
ownr                                     : louis geen
AppleStoreCatalogID                      : 337976940
AlbumTitleID                             : 83093776
cmID                                     : 83093776
PlayListID                               : 337976795
GenreID                                  : 16
AppleStoreCountry                        : United States
PurchaseDate                             : 2014-12-08 14:02:30
Title/Sort                               : Last Laugh
Vendor                                   : Warner:isrc:USRE10900101

Audio
ID                                       : 1
Format                                   : AAC
Format/Info                              : Advanced Audio Codec
Format profile                           : LC
Codec ID                                 : 40
Duration                                 : 57s 469ms
Bit rate mode                            : Variable
Bit rate                                 : 256 Kbps
Maximum bit rate                         : 365 Kbps
Channel(s)                               : 2 channels
Channel positions                        : Front: L R
Sampling rate                            : 44.1 KHz
Compression mode                         : Lossy
Stream size                              : 1.82 MiB (77%)
Language                                 : English
Encoded date                             : UTC 1975-02-20 01:52:12
Tagged date                              : UTC 2014-12-08 22:08:43

General
Complete name                            : D:\Sound\Music\Soundtracks\Watchmen\Tyler Bates - Watchmen - Score (2009) [AAC]\11 Prison Fight.m4a
Format                                   : MPEG-4
Format profile                           : Apple audio with iTunes info
Codec ID                                 : M4A
File size                                : 4.06 MiB
Duration                                 : 1mn 45s
Overall bit rate mode                    : Variable
Overall bit rate                         : 324 Kbps
Album                                    : Watchmen (Original Motion Picture Score)
Album/Performer                          : Tyler Bates
Part/Position                            : 1
Part/Total                               : 1
Track name                               : Prison Fight
Track name/Position                      : 11
Track name/Total                         : 22
Performer                                : Tyler Bates
Composer                                 : Tyler Bates
Genre                                    : Soundtrack
ContentType                              : Music
Recorded date                            : UTC 2009-02-23 08:00:00
Encoded date                             : UTC 1993-03-19 05:21:16
Tagged date                              : UTC 2014-12-08 22:30:49
Copyright                                : ℗ 2009 Warner Bros. Entertainment Inc.
Cover                                    : Yes
Rating                                   : None
AppleStoreAccount                        : wenhui324@gmail.com
ownr                                     : louis geen
AppleStoreCatalogID                      : 337976943
AlbumTitleID                             : 83093776
cmID                                     : 83093776
PlayListID                               : 337976795
GenreID                                  : 16
AppleStoreCountry                        : United States
PurchaseDate                             : 2014-12-08 14:02:30
Vendor                                   : Warner:isrc:USRE10801621

Audio
ID                                       : 1
Format                                   : AAC
Format/Info                              : Advanced Audio Codec
Format profile                           : LC
Codec ID                                 : 40
Duration                                 : 1mn 45s
Bit rate mode                            : Variable
Bit rate                                 : 280 Kbps
Nominal bit rate                         : 256 Kbps
Maximum bit rate                         : 354 Kbps
Channel(s)                               : 2 channels
Channel positions                        : Front: L R
Sampling rate                            : 44.1 KHz
Compression mode                         : Lossy
Stream size                              : 3.51 MiB (86%)
Language                                 : English
Encoded date                             : UTC 1993-03-19 05:21:16
Tagged date                              : UTC 2014-12-08 22:30:49

General
Complete name                            : D:\Sound\Music\Soundtracks\Watchmen\Tyler Bates - Watchmen - Score (2009) [AAC]\12 Just Look Around You.m4a
Format                                   : MPEG-4
Format profile                           : Apple audio with iTunes info
Codec ID                                 : M4A
File size                                : 11.7 MiB
Duration                                 : 5mn 51s
Overall bit rate mode                    : Variable
Overall bit rate                         : 279 Kbps
Album                                    : Watchmen (Original Motion Picture Score)
Album/Performer                          : Tyler Bates
Part/Position                            : 1
Part/Total                               : 1
Track name                               : Just Look Around You
Track name/Position                      : 12
Track name/Total                         : 22
Performer                                : Tyler Bates
Composer                                 : Tyler Bates
Genre                                    : Soundtrack
ContentType                              : Music
Recorded date                            : UTC 2009-02-23 08:00:00
Encoded date                             : UTC 2020-11-08 20:42:52
Tagged date                              : UTC 2014-12-08 22:09:09
Copyright                                : ℗ 2009 Warner Bros. Entertainment Inc.
Cover                                    : Yes
Rating                                   : None
AppleStoreAccount                        : wenhui324@gmail.com
ownr                                     : louis geen
AppleStoreCatalogID                      : 337976949
AlbumTitleID                             : 83093776
cmID                                     : 83093776
PlayListID                               : 337976795
GenreID                                  : 16
AppleStoreCountry                        : United States
PurchaseDate                             : 2014-12-08 14:02:30
Vendor                                   : Warner:isrc:USRE10900102

Audio
ID                                       : 1
Format                                   : AAC
Format/Info                              : Advanced Audio Codec
Format profile                           : LC
Codec ID                                 : 40
Duration                                 : 5mn 51s
Bit rate mode                            : Variable
Bit rate                                 : 256 Kbps
Maximum bit rate                         : 375 Kbps
Channel(s)                               : 2 channels
Channel positions                        : Front: L R
Sampling rate                            : 44.1 KHz
Compression mode                         : Lossy
Stream size                              : 11.1 MiB (95%)
Language                                 : English
Encoded date                             : UTC 2020-11-08 20:42:52
Tagged date                              : UTC 2014-12-08 22:09:09

General
Complete name                            : D:\Sound\Music\Soundtracks\Watchmen\Tyler Bates - Watchmen - Score (2009) [AAC]\13 Dan's Apocalyptic Dream.m4a
Format                                   : MPEG-4
Format profile                           : Apple audio with iTunes info
Codec ID                                 : M4A
File size                                : 2.93 MiB
Duration                                 : 1mn 17s
Overall bit rate mode                    : Variable
Overall bit rate                         : 316 Kbps
Album                                    : Watchmen (Original Motion Picture Score)
Album/Performer                          : Tyler Bates
Part/Position                            : 1
Part/Total                               : 1
Track name                               : Dan's Apocalyptic Dream
Track name/Position                      : 13
Track name/Total                         : 22
Performer                                : Tyler Bates
Composer                                 : Tyler Bates
Genre                                    : Soundtrack
ContentType                              : Music
Recorded date                            : UTC 2009-02-23 08:00:00
Encoded date                             : UTC 1971-12-12 05:38:20
Tagged date                              : UTC 2014-12-08 22:13:39
Copyright                                : ℗ 2009 Warner Bros. Entertainment Inc.
Cover                                    : Yes
Rating                                   : None
AppleStoreAccount                        : wenhui324@gmail.com
ownr                                     : louis geen
AppleStoreCatalogID                      : 337976951
AlbumTitleID                             : 83093776
cmID                                     : 83093776
PlayListID                               : 337976795
GenreID                                  : 16
AppleStoreCountry                        : United States
PurchaseDate                             : 2014-12-08 14:02:30
Vendor                                   : Warner:isrc:USRE10900103

Audio
ID                                       : 1
Format                                   : AAC
Format/Info                              : Advanced Audio Codec
Format profile                           : LC
Codec ID                                 : 40
Duration                                 : 1mn 17s
Bit rate mode                            : Variable
Bit rate                                 : 256 Kbps
Maximum bit rate                         : 328 Kbps
Channel(s)                               : 2 channels
Channel positions                        : Front: L R
Sampling rate                            : 44.1 KHz
Compression mode                         : Lossy
Stream size                              : 2.38 MiB (81%)
Language                                 : English
Encoded date                             : UTC 1971-12-12 05:38:20
Tagged date                              : UTC 2014-12-08 22:13:39

General
Complete name                            : D:\Sound\Music\Soundtracks\Watchmen\Tyler Bates - Watchmen - Score (2009) [AAC]\14 Who Murdered Hollis Mason.m4a
Format                                   : MPEG-4
Format profile                           : Apple audio with iTunes info
Codec ID                                 : M4A
File size                                : 2.32 MiB
Duration                                 : 56s 7ms
Overall bit rate mode                    : Variable
Overall bit rate                         : 347 Kbps
Album                                    : Watchmen (Original Motion Picture Score)
Album/Performer                          : Tyler Bates
Part/Position                            : 1
Part/Total                               : 1
Track name                               : Who Murdered Hollis Mason?
Track name/Position                      : 14
Track name/Total                         : 22
Performer                                : Tyler Bates
Composer                                 : Tyler Bates
Genre                                    : Soundtrack
ContentType                              : Music
Recorded date                            : UTC 2009-02-23 08:00:00
Tagged date                              : UTC 2014-12-08 22:13:17
Copyright                                : ℗ 2009 Warner Bros. Entertainment Inc.
Cover                                    : Yes
Rating                                   : None
AppleStoreAccount                        : wenhui324@gmail.com
ownr                                     : louis geen
AppleStoreCatalogID                      : 337976954
AlbumTitleID                             : 83093776
cmID                                     : 83093776
PlayListID                               : 337976795
GenreID                                  : 16
AppleStoreCountry                        : United States
PurchaseDate                             : 2014-12-08 14:02:30
Vendor                                   : Warner:isrc:USRE10900104

Audio
ID                                       : 1
Format                                   : AAC
Format/Info                              : Advanced Audio Codec
Format profile                           : LC
Codec ID                                 : 40
Duration                                 : 56s 7ms
Bit rate mode                            : Variable
Bit rate                                 : 256 Kbps
Maximum bit rate                         : 313 Kbps
Channel(s)                               : 2 channels
Channel positions                        : Front: L R
Sampling rate                            : 44.1 KHz
Compression mode                         : Lossy
Stream size                              : 1.78 MiB (77%)
Language                                 : English
Tagged date                              : UTC 2014-12-08 22:13:17

General
Complete name                            : D:\Sound\Music\Soundtracks\Watchmen\Tyler Bates - Watchmen - Score (2009) [AAC]\15 What About Janie Slater.m4a
Format                                   : MPEG-4
Format profile                           : Apple audio with iTunes info
Codec ID                                 : M4A
File size                                : 3.60 MiB
Duration                                 : 1mn 34s
Overall bit rate mode                    : Variable
Overall bit rate                         : 319 Kbps
Album                                    : Watchmen (Original Motion Picture Score)
Album/Performer                          : Tyler Bates
Part/Position                            : 1
Part/Total                               : 1
Track name                               : What About Janie Slater?
Track name/Position                      : 15
Track name/Total                         : 22
Performer                                : Tyler Bates
Composer                                 : Tyler Bates
Genre                                    : Soundtrack
ContentType                              : Music
Recorded date                            : UTC 2009-02-23 08:00:00
Encoded date                             : UTC 1990-07-22 07:39:56
Tagged date                              : UTC 2014-12-08 22:13:53
Copyright                                : ℗ 2009 Warner Bros. Entertainment Inc.
Cover                                    : Yes
Rating                                   : None
AppleStoreAccount                        : wenhui324@gmail.com
ownr                                     : louis geen
AppleStoreCatalogID                      : 337976982
AlbumTitleID                             : 83093776
cmID                                     : 83093776
PlayListID                               : 337976795
GenreID                                  : 16
AppleStoreCountry                        : United States
PurchaseDate                             : 2014-12-08 14:02:30
Vendor                                   : Warner:isrc:USRE10900105

Audio
ID                                       : 1
Format                                   : AAC
Format/Info                              : Advanced Audio Codec
Format profile                           : LC
Codec ID                                 : 40
Duration                                 : 1mn 34s
Bit rate mode                            : Variable
Bit rate                                 : 271 Kbps
Nominal bit rate                         : 256 Kbps
Maximum bit rate                         : 306 Kbps
Channel(s)                               : 2 channels
Channel positions                        : Front: L R
Sampling rate                            : 44.1 KHz
Compression mode                         : Lossy
Stream size                              : 3.05 MiB (85%)
Language                                 : English
Encoded date                             : UTC 1990-07-22 07:39:56
Tagged date                              : UTC 2014-12-08 22:13:53

General
Complete name                            : D:\Sound\Music\Soundtracks\Watchmen\Tyler Bates - Watchmen - Score (2009) [AAC]\16 I'll Tell You About Rorschach.m4a
Format                                   : MPEG-4
Format profile                           : Apple audio with iTunes info
Codec ID                                 : M4A
File size                                : 8.41 MiB
Duration                                 : 4mn 10s
Overall bit rate mode                    : Variable
Overall bit rate                         : 282 Kbps
Album                                    : Watchmen (Original Motion Picture Score)
Album/Performer                          : Tyler Bates
Part/Position                            : 1
Part/Total                               : 1
Track name                               : I'll Tell You About Rorschach
Track name/Position                      : 16
Track name/Total                         : 22
Performer                                : Tyler Bates
Composer                                 : Tyler Bates
Genre                                    : Soundtrack
ContentType                              : Music
Recorded date                            : UTC 2009-02-23 08:00:00
Tagged date                              : UTC 2014-12-08 22:14:47
Copyright                                : ℗ 2009 Warner Bros. Entertainment Inc.
Cover                                    : Yes
Rating                                   : None
AppleStoreAccount                        : wenhui324@gmail.com
ownr                                     : louis geen
AppleStoreCatalogID                      : 337976985
AlbumTitleID                             : 83093776
cmID                                     : 83093776
PlayListID                               : 337976795
GenreID                                  : 16
AppleStoreCountry                        : United States
PurchaseDate                             : 2014-12-08 14:02:30
Vendor                                   : Warner:isrc:USRE10900106

Audio
ID                                       : 1
Format                                   : AAC
Format/Info                              : Advanced Audio Codec
Format profile                           : LC
Codec ID                                 : 40
Duration                                 : 4mn 10s
Bit rate mode                            : Variable
Bit rate                                 : 256 Kbps
Maximum bit rate                         : 459 Kbps
Channel(s)                               : 2 channels
Channel positions                        : Front: L R
Sampling rate                            : 44.1 KHz
Compression mode                         : Lossy
Stream size                              : 7.84 MiB (93%)
Language                                 : English
Tagged date                              : UTC 2014-12-08 22:14:47

General
Complete name                            : D:\Sound\Music\Soundtracks\Watchmen\Tyler Bates - Watchmen - Score (2009) [AAC]\17 Countdown.m4a
Format                                   : MPEG-4
Format profile                           : Apple audio with iTunes info
Codec ID                                 : M4A
File size                                : 5.80 MiB
Duration                                 : 2mn 46s
Overall bit rate mode                    : Variable
Overall bit rate                         : 292 Kbps
Album                                    : Watchmen (Original Motion Picture Score)
Album/Performer                          : Tyler Bates
Part/Position                            : 1
Part/Total                               : 1
Track name                               : Countdown
Track name/Position                      : 17
Track name/Total                         : 22
Performer                                : Tyler Bates
Composer                                 : Tyler Bates
Genre                                    : Soundtrack
ContentType                              : Music
Recorded date                            : UTC 2009-02-23 08:00:00
Encoded date                             : UTC 1980-06-19 10:28:28
Tagged date                              : UTC 2014-12-08 22:15:06
Copyright                                : ℗ 2009 Warner Bros. Entertainment Inc.
Cover                                    : Yes
Rating                                   : None
AppleStoreAccount                        : wenhui324@gmail.com
ownr                                     : louis geen
AppleStoreCatalogID                      : 337976995
AlbumTitleID                             : 83093776
cmID                                     : 83093776
PlayListID                               : 337976795
GenreID                                  : 16
AppleStoreCountry                        : United States
PurchaseDate                             : 2014-12-08 14:02:30
Vendor                                   : Warner:isrc:USRE10900107

Audio
ID                                       : 1
Format                                   : AAC
Format/Info                              : Advanced Audio Codec
Format profile                           : LC
Codec ID                                 : 40
Duration                                 : 2mn 46s
Bit rate mode                            : Variable
Bit rate                                 : 256 Kbps
Maximum bit rate                         : 323 Kbps
Channel(s)                               : 2 channels
Channel positions                        : Front: L R
Sampling rate                            : 44.1 KHz
Compression mode                         : Lossy
Stream size                              : 5.24 MiB (90%)
Language                                 : English
Encoded date                             : UTC 1980-06-19 10:28:28
Tagged date                              : UTC 2014-12-08 22:15:06

General
Complete name                            : D:\Sound\Music\Soundtracks\Watchmen\Tyler Bates - Watchmen - Score (2009) [AAC]\18 It Was Me.m4a
Format                                   : MPEG-4
Format profile                           : Apple audio with iTunes info
Codec ID                                 : M4A
File size                                : 3.05 MiB
Duration                                 : 1mn 23s
Overall bit rate mode                    : Variable
Overall bit rate                         : 305 Kbps
Album                                    : Watchmen (Original Motion Picture Score)
Album/Performer                          : Tyler Bates
Part/Position                            : 1
Part/Total                               : 1
Track name                               : It Was Me
Track name/Position                      : 18
Track name/Total                         : 22
Performer                                : Tyler Bates
Composer                                 : Tyler Bates
Genre                                    : Soundtrack
ContentType                              : Music
Recorded date                            : UTC 2009-02-23 08:00:00
Encoded date                             : UTC 1998-07-13 00:43:56
Tagged date                              : UTC 2014-12-08 22:15:01
Copyright                                : ℗ 2009 Warner Bros. Entertainment Inc.
Cover                                    : Yes
Rating                                   : None
AppleStoreAccount                        : wenhui324@gmail.com
ownr                                     : louis geen
AppleStoreCatalogID                      : 337976997
AlbumTitleID                             : 83093776
cmID                                     : 83093776
PlayListID                               : 337976795
GenreID                                  : 16
AppleStoreCountry                        : United States
PurchaseDate                             : 2014-12-08 14:02:30
Vendor                                   : Warner:isrc:USRE10900108

Audio
ID                                       : 1
Format                                   : AAC
Format/Info                              : Advanced Audio Codec
Format profile                           : LC
Codec ID                                 : 40
Duration                                 : 1mn 23s
Bit rate mode                            : Variable
Bit rate                                 : 256 Kbps
Maximum bit rate                         : 289 Kbps
Channel(s)                               : 2 channels
Channel positions                        : Front: L R
Sampling rate                            : 44.1 KHz
Compression mode                         : Lossy
Stream size                              : 2.50 MiB (82%)
Language                                 : English
Encoded date                             : UTC 1998-07-13 00:43:56
Tagged date                              : UTC 2014-12-08 22:15:01

General
Complete name                            : D:\Sound\Music\Soundtracks\Watchmen\Tyler Bates - Watchmen - Score (2009) [AAC]\19 All That is Good.m4a
Format                                   : MPEG-4
Format profile                           : Apple audio with iTunes info
Codec ID                                 : M4A
File size                                : 9.92 MiB
Duration                                 : 4mn 58s
Overall bit rate mode                    : Variable
Overall bit rate                         : 279 Kbps
Album                                    : Watchmen (Original Motion Picture Score)
Album/Performer                          : Tyler Bates
Part/Position                            : 1
Part/Total                               : 1
Track name                               : All That Is Good
Track name/Position                      : 19
Track name/Total                         : 22
Performer                                : Tyler Bates
Composer                                 : Tyler Bates
Genre                                    : Soundtrack
ContentType                              : Music
Recorded date                            : UTC 2009-02-23 08:00:00
Encoded date                             : UTC 1980-06-14 21:14:52
Tagged date                              : UTC 2014-12-08 22:58:38
Copyright                                : ℗ 2009 Warner Bros. Entertainment Inc.
Cover                                    : Yes
Rating                                   : None
AppleStoreAccount                        : wenhui324@gmail.com
ownr                                     : louis geen
AppleStoreCatalogID                      : 337977013
AlbumTitleID                             : 83093776
cmID                                     : 83093776
PlayListID                               : 337976795
GenreID                                  : 16
AppleStoreCountry                        : United States
PurchaseDate                             : 2014-12-08 14:02:30
Vendor                                   : Warner:isrc:USRE10900109

Audio
ID                                       : 1
Format                                   : AAC
Format/Info                              : Advanced Audio Codec
Format profile                           : LC
Codec ID                                 : 40
Duration                                 : 4mn 58s
Bit rate mode                            : Variable
Bit rate                                 : 256 Kbps
Maximum bit rate                         : 457 Kbps
Channel(s)                               : 2 channels
Channel positions                        : Front: L R
Sampling rate                            : 44.1 KHz
Compression mode                         : Lossy
Stream size                              : 9.33 MiB (94%)
Language                                 : English
Encoded date                             : UTC 1980-06-14 21:14:52
Tagged date                              : UTC 2014-12-08 22:58:38

General
Complete name                            : D:\Sound\Music\Soundtracks\Watchmen\Tyler Bates - Watchmen - Score (2009) [AAC]\20 Requiem.m4a
Format                                   : MPEG-4
Format profile                           : Apple audio with iTunes info
Codec ID                                 : M4A
File size                                : 2.26 MiB
Duration                                 : 55s 31ms
Overall bit rate mode                    : Variable
Overall bit rate                         : 345 Kbps
Album                                    : Watchmen (Original Motion Picture Score)
Album/Performer                          : Tyler Bates
Part/Position                            : 1
Part/Total                               : 1
Track name                               : Requiem
Track name/Position                      : 20
Track name/Total                         : 22
Performer                                : Tyler Bates
Composer                                 : Tyler Bates
Genre                                    : Soundtrack
ContentType                              : Music
Recorded date                            : UTC 2009-02-23 08:00:00
Tagged date                              : UTC 2014-12-08 22:15:16
Copyright                                : ℗ 2009 Warner Bros. Entertainment Inc.
Cover                                    : Yes
Rating                                   : None
AppleStoreAccount                        : wenhui324@gmail.com
ownr                                     : louis geen
AppleStoreCatalogID                      : 337977016
AlbumTitleID                             : 83093776
cmID                                     : 83093776
PlayListID                               : 337976795
GenreID                                  : 16
AppleStoreCountry                        : United States
PurchaseDate                             : 2014-12-08 14:02:30
Vendor                                   : Warner:isrc:USRE10900110

Audio
ID                                       : 1
Format                                   : AAC
Format/Info                              : Advanced Audio Codec
Format profile                           : LC
Codec ID                                 : 40
Duration                                 : 55s 31ms
Bit rate mode                            : Variable
Bit rate                                 : 256 Kbps
Maximum bit rate                         : 309 Kbps
Channel(s)                               : 2 channels
Channel positions                        : Front: L R
Sampling rate                            : 44.1 KHz
Compression mode                         : Lossy
Stream size                              : 1.72 MiB (76%)
Language                                 : English
Tagged date                              : UTC 2014-12-08 22:15:16

General
Complete name                            : D:\Sound\Music\Soundtracks\Watchmen\Tyler Bates - Watchmen - Score (2009) [AAC]\21 I Love You.m4a
Format                                   : MPEG-4
Format profile                           : Apple audio with iTunes info
Codec ID                                 : M4A
File size                                : 5.50 MiB
Duration                                 : 2mn 41s
Overall bit rate mode                    : Variable
Overall bit rate                         : 286 Kbps
Album                                    : Watchmen (Original Motion Picture Score)
Album/Performer                          : Tyler Bates
Part/Position                            : 1
Part/Total                               : 1
Track name                               : I Love You
Track name/Position                      : 21
Track name/Total                         : 22
Performer                                : Tyler Bates
Composer                                 : Tyler Bates
Genre                                    : Soundtrack
ContentType                              : Music
Recorded date                            : UTC 2009-02-23 08:00:00
Tagged date                              : UTC 2014-12-08 22:17:26
Copyright                                : ℗ 2009 Warner Bros. Entertainment Inc.
Cover                                    : Yes
Rating                                   : None
AppleStoreAccount                        : wenhui324@gmail.com
ownr                                     : louis geen
AppleStoreCatalogID                      : 337977021
AlbumTitleID                             : 83093776
cmID                                     : 83093776
PlayListID                               : 337976795
GenreID                                  : 16
AppleStoreCountry                        : United States
PurchaseDate                             : 2014-12-08 14:02:30
Vendor                                   : Warner:isrc:USRE10900111

Audio
ID                                       : 1
Format                                   : AAC
Format/Info                              : Advanced Audio Codec
Format profile                           : LC
Codec ID                                 : 40
Duration                                 : 2mn 41s
Bit rate mode                            : Variable
Bit rate                                 : 256 Kbps
Maximum bit rate                         : 332 Kbps
Channel(s)                               : 2 channels
Channel positions                        : Front: L R
Sampling rate                            : 44.1 KHz
Compression mode                         : Lossy
Stream size                              : 4.94 MiB (90%)
Language                                 : English
Tagged date                              : UTC 2014-12-08 22:17:26

General
Complete name                            : D:\Sound\Music\Soundtracks\Watchmen\Tyler Bates - Watchmen - Score (2009) [AAC]\22 Prison Fight (Philip Steir - Phat Prison Phight Remix).m4a
Format                                   : MPEG-4
Format profile                           : Apple audio with iTunes info
Codec ID                                 : M4A
File size                                : 11.9 MiB
Duration                                 : 6mn 2s
Overall bit rate mode                    : Variable
Overall bit rate                         : 277 Kbps
Album                                    : Watchmen (Original Motion Picture Score)
Album/Performer                          : Tyler Bates
Part/Position                            : 1
Part/Total                               : 1
Track name                               : Prison Fight (Philip Steir / Phat Prison Phight Remix)
Track name/Position                      : 22
Track name/Total                         : 22
Performer                                : Tyler Bates
Composer                                 : Tyler Bates
Genre                                    : Soundtrack
ContentType                              : Music
Recorded date                            : UTC 2009-02-23 08:00:00
Tagged date                              : UTC 2014-12-14 07:02:27
Copyright                                : ℗ 2009 Warner Bros. Entertainment Inc.
Cover                                    : Yes
Comment                                  : (Philip Steir / Phat Prison Phight Remix)
Rating                                   : None
AppleStoreAccount                        : wenhui324@gmail.com
ownr                                     : louis geen
AppleStoreCatalogID                      : 337977043
AlbumTitleID                             : 83093776
cmID                                     : 83093776
PlayListID                               : 337976795
GenreID                                  : 16
AppleStoreCountry                        : United States
PurchaseDate                             : 2014-12-08 14:02:30
Vendor                                   : Warner:isrc:USRE10901911

Audio
ID                                       : 1
Format                                   : AAC
Format/Info                              : Advanced Audio Codec
Format profile                           : LC
Codec ID                                 : 40
Duration                                 : 6mn 2s
Bit rate mode                            : Variable
Bit rate                                 : 256 Kbps
Maximum bit rate                         : 364 Kbps
Channel(s)                               : 2 channels
Channel positions                        : Front: L R
Sampling rate                            : 44.1 KHz
Compression mode                         : Lossy
Stream size                              : 11.3 MiB (95%)
Language                                 : English
Tagged date                              : UTC 2014-12-14 07:02:27

General
Complete name                            : D:\Sound\Music\Soundtracks\Watchmen\Tyler Bates - Watchmen - Score (2009) [AAC]\Digital Booklet - Watchmen.pdf
Format                                   : PDF
Format version                           : 1.6
File size                                : 2.50 MiB

Text
Format                                   : PDF
Время раздачи: Сб-Вс с 09:00 до 23:30
[NNM-Club.me]_Tyler Bates - Watchmen - Score (2009) [AAC].torrent
 Торрент: Платиновая раздача  Зарегистрирован
 
Скачать


Примагнититься
 Зарегистрирован:   21 Дек 2014 14:29:52
 Размер:   110 MB  (
 Рейтинг:   4,7 (Голосов: 14)
 Поблагодарили:   37
 Проверка:   Оформление проверено модератором 21 Дек 2014 14:57:10
Как cкачать  ·  Как раздать  ·  Правильно оформить  ·  Поднять ратио!  
джон Кайф
Стаж: 9 лет 7 мес.
Сообщений: 221
Ratio: 2,428
Поблагодарили: 1
100%
Откуда: От туда !
uk.gif
А где My Chemical Romance - "Desolation Row"?????(конец фильма титры)
igoryek ®
Стаж: 11 лет
Сообщений: 347
Ratio: 50,904
Поблагодарили: 22889
100%
джон Кайф
это в саундтреке VA - Хранители / Watchmen (2009) [AAC|WEB-DL|256 кб/с]<Soundtrack>
Показать сообщения:   
Начать новую тему   Ответить на тему    Торрент-трекер NNM-Club -> Аудио и Видео -> Музыка (AAC) Часовой пояс: GMT + 3
Страница 1 из 1