Классический форум-трекер
canvas not supported
Нас вместе: 4 076 726

Американская история Х / American History X (1998) BDRip [H.264/1080p]


 
 
RSS
Начать новую тему   Ответить на тему    Торрент-трекер NNM-Club -> Зарубежное кино -> Зарубежные Фильмы (HD, UHD-LQ)
Автор Сообщение
rworkx ®
Стаж: 4 года 8 мес.
Сообщений: 95
Ratio: 22,21
Раздал: 4,086 TB
Поблагодарили: 6480
100%
Американская история Х / American History X (1998) BDRip
Производство: США
Жанр: Драма, Криминал

Режиссер: Тони Кэй
Актеры: Эдвард Нортон, Эдвард Ферлонг, Беверли Д’Анджело, Дженнифер Лиен, Итан Сапли, Файруза Балк, Эйвери Брукс, Эллиотт Гулд, Стейси Кич, Уильям Расс

Описание:
Лидер местной банды скинхедов Дерек Виньярд прочно удерживает авторитет в своём районе. Убеждённый в своей правоте, он беспощадно расправляется с теми, кто имеет не белый цвет кожи. Независимость и смелость Дерека вызывают восхищение у его младшего брата Дэнни, который уже тоже сделал свой выбор.
Но зверское убийство двух чернокожих парней, совершённое Дереком, разделяет дороги братьев: Дерек оказывается в тюрьме, где существует свой расклад сил, а Дэнни на свободе успешно продолжает дело брата. До тех пор, пока их пути не пересеклись вновь…



Продолжительность: 01:58:53
Качество видео: BDRip
Автор рипа: rwork

Перевод: Профессиональный (многоголосый, закадровый) [West-ViDEO]
Субтитры: Отсутствуют

Видеокодек: MPEG-4 AVC/H.264
Битрейт видео: ~16,0 mbps
Размер кадра: 1920x1080
Аудио: Русский 48 kHz, DTS, 6 ch, 3/2 (L,C,R,l,r) + LFE ch, ~1510 kbps avg

Скриншоты:

Код: выделить все
Общее
Полное имя                               : American_History_X_1080.mkv
Формат                                   : Matroska
Версия формата                           : Version 4 / Version 2
Размер файла                             : 14,5 Гбайт
Продолжительность                        : 1 ч. 58 м.
Общий поток                              : 17,5 Мбит/сек
Дата кодирования                         : UTC 2014-12-24 13:54:37
Программа кодирования                    : mkvmerge v7.4.0 ('Circles') 64bit built on Dec 12 2014 12:19:56
Библиотека кодирования                   : libebml v1.3.0 + libmatroska v1.4.1
DURATION                                 : 01:58:53.334000000
NUMBER_OF_FRAMES                         : 668756
NUMBER_OF_BYTES                          : 1346205828
_STATISTICS_WRITING_APP                  : mkvmerge v7.4.0 ('Circles') 64bit built on Dec 12 2014 12:19:56
_STATISTICS_WRITING_DATE_UTC             : 2014-12-24 13:54:37
_STATISTICS_TAGS                         : BPS DURATION NUMBER_OF_FRAMES NUMBER_OF_BYTES

Видео
Идентификатор                            : 1
Формат                                   : AVC
Формат/Информация                        : Advanced Video Codec
Профиль формата                          : High@L4.1
Параметр CABAC формата                   : Да
Параметр ReFrames формата                : 4 кадра
Идентификатор кодека                     : V_MPEG4/ISO/AVC
Продолжительность                        : 1 ч. 58 м.
Битрейт                                  : 16,0 Мбит/сек
Ширина                                   : 1920 пикселей
Высота                                   : 1080 пикселей
Соотношение сторон                       : 16:9
Режим частоты кадров                     : Постоянный
Частота кадров                           : 23,976 кадра/сек
Цветовое пространство                    : YUV
Субдискретизация насыщенности            : 4:2:0
Битовая глубина                          : 8 бит
Тип развёртки                            : Прогрессивная
Бит/(Пиксели*Кадры)                      : 0.322
Размер потока                            : 13,0 Гбайт (89%)
Заголовок                                : Rip by rwork
Библиотека кодирования                   : x264 core 67 r1134M b8808bf
Настройки программы                      : cabac=1 / ref=4 / deblock=1:-3:-3 / analyse=0x3:0x133 / me=tesa / subme=9 / psy_rd=1.2:0.0 / mixed_ref=1 / me_range=32 / chroma_me=1 / trellis=2 / 8x8dct=1 / cqm=0 / deadzone=21,11 / chroma_qp_offset=-2 / threads=12 / nr=0 / decimate=1 / mbaff=0 / bframes=12 / b_pyramid=1 / b_adapt=2 / b_bias=0 / direct=3 / wpredb=1 / keyint=250 / keyint_min=25 / scenecut=40 / rc=2pass / bitrate=16000 / ratetol=1.0 / qcomp=0.60 / qpmin=10 / qpmax=51 / qpstep=4 / cplxblur=20.0 / qblur=0.5 / ip_ratio=1.40 / pb_ratio=1.30 / aq=1:1.00
Язык                                     : English
Default                                  : Да
Forced                                   : Нет
DURATION                                 : 01:58:53.335000000
NUMBER_OF_FRAMES                         : 171029
NUMBER_OF_BYTES                          : 14265399308
_STATISTICS_WRITING_APP                  : mkvmerge v7.4.0 ('Circles') 64bit built on Dec 12 2014 12:19:56
_STATISTICS_WRITING_DATE_UTC             : 2014-12-24 13:54:37
_STATISTICS_TAGS                         : BPS DURATION NUMBER_OF_FRAMES NUMBER_OF_BYTES

Аудио
Идентификатор                            : 2
Формат                                   : DTS
Формат/Информация                        : Digital Theater Systems
Режим                                    : 16
Параметр Endianness формата              : Big
Идентификатор кодека                     : A_DTS
Продолжительность                        : 1 ч. 58 м.
Вид битрейта                             : Постоянный
Битрейт                                  : 1510 Кбит/сек
Каналы                                   : 6 каналов
Расположение каналов                     : Front: L C R, Side: L R, LFE
Частота                                  : 48,0 КГц
Битовая глубина                          : 24 бит
Метод сжатия                             : С потерями
Размер потока                            : 1,25 Гбайт (9%)
Заголовок                                : Русский [West-ViDEO]
Язык                                     : Russian
Default                                  : Да
Forced                                   : Нет

Время раздачи: 7:00 до 23:00
[NNM-Club.me]_American_History_X_1080.torrent
 Торрент: Платиновая раздача  Зарегистрирован
 
Скачать


Примагнититься
 Зарегистрирован:   24 Дек 2014 17:31:05
 Размер:   14,5 GB  (
 Рейтинг:   4,7 (Голосов: 96)
 Поблагодарили:   300
 Проверка:   Оформление проверено модератором 25 Дек 2014 16:26:02
Как cкачать  ·  Как раздать  ·  Правильно оформить  ·  Поднять ратио!  
rworkx ®
Стаж: 4 года 8 мес.
Сообщений: 95
Ratio: 22,21
Раздал: 4,086 TB
Поблагодарили: 6480
100%
Приятного просмотра :подмигивание:
Так же можно скачать рип в 720p
xxxromario
Стаж: 9 лет 5 мес.
Сообщений: 132
Ratio: 101,761
Раздал: 77,44 TB
100%
usa.gif
отличный фильм!
igordizajner
Стаж: 9 лет 2 мес.
Сообщений: 242
Ratio: 18,133
100%
по последним фильмам Эдвард Ферлонг деградировал... жаль, а начинал он хорошо, Нортон - Отличный актер как был так и остался... Фильм не плох в своем жанре... Смотрел его 15 лет назад.
genius1305
Стаж: 10 лет 3 мес.
Сообщений: 41
Ratio: 3,843
28.96%
Кому понравился советую так же посмотреть это - Наци / Fuhrer Ex (2002) DVDRip
alien00
Стаж: 8 лет 2 мес.
Сообщений: 342
Ratio: 2,852
48.97%
russia.gif
Фильм отличный..
НО:
- этот перевод очень прилизанный (теряется атмосфера)
- качество ... раздутый в 1080p dvd - ну что за чепуха!
rworkx ®
Стаж: 4 года 8 мес.
Сообщений: 95
Ratio: 22,21
Раздал: 4,086 TB
Поблагодарили: 6480
100%
alien00, вы считаете себя экспертов в bd?
Хочу вас огорчить. Вот скриншот с оригинала (Blu-Ray Disk):
gerrett
Стаж: 9 лет 6 мес.
Сообщений: 105
Ratio: 4,3
Поблагодарили: 104
100%
Откуда: беруться дети??
cuba.gif
фильм сильнейший
ukinari
Стаж: 7 лет 6 мес.
Сообщений: 156
Ratio: 11,031
0.86%
А фильм то хорош, слышал евреи спонсировали, но думаю они добились противоположного эффекта.
Показать сообщения:   
Начать новую тему   Ответить на тему    Торрент-трекер NNM-Club -> Зарубежное кино -> Зарубежные Фильмы (HD, UHD-LQ) Часовой пояс: GMT + 3
Страница 1 из 1