Классический форум-трекер
canvas not supported
Нас вместе: 4 114 978

Мирный воин / Peaceful Warrior (2006) WEB-DLRip [720p]


 
 
RSS
Начать новую тему   Ответить на тему    Торрент-трекер NNM-Club -> Зарубежное кино -> Зарубежные Фильмы (HD, UHD-LQ)
Автор Сообщение
rworkx ®
Стаж: 5 лет 5 мес.
Сообщений: 95
Ratio: 16,421
Раздал: 4,235 TB
Поблагодарили: 6970
100%
Мирный воин / Peaceful Warrior (2006) WEB-DLRip
Год выпуска: 2006
Производство: Германия, США
Жанр: Драма, Мелодрама, Спорт, Биография

Режиссер: Виктор Сальва
Актеры: Скотт Мехловиц, Ник Нолти, Эми Смарт, Тим ДиКей, Эштон Холмс, Пол Уэсли, Б.Дж. Бритт, Агнес Бракнер, Том Тарантини, Беатрис Розен

Описание фильма:
Дэн Миллмен — талантливый гимнаст колледжа, мечтающий о выступлении на Олимпийских играх. У него всё есть: награды, друзья по команде, быстрые мотоциклы, девушки и бесшабашные вечеринки.

Мир Дэна переворачивается с ног на голову, когда он встречает загадочного незнакомца по имени Сократ, у которого достаточно возможностей, чтоб открыть новый мир силы и понимания. После серьёзной травмы, с помощью Сократа и эфемерной молодой девушки по имени Джой, Ден понимает, что ему много чему ещё придется научиться…



Продолжительность: 02:00:51
Качество видео: WEB-DLRip
Автор рипа: rwork

Перевод: Профессиональный (многоголосый, закадровый) [ТВ3]
Субтитры: Отсутствуют

Видеокодек: MPEG-4 AVC/H.264
Битрейт видео: ~4140 kbps
Размер кадра: 1280x538
Аудио: Русский 48 kHz, AC3, 2/0 (L,R) ch, ~192 kbps avg

Скриншоты:

Код: выделить все
Общее
Полное имя                               : Peaceful_Warrior_720.mkv
Формат                                   : Matroska
Версия формата                           : Version 4 / Version 2
Размер файла                             : 3,73 Гбайт
Продолжительность                        : 2 ч. 0 м.
Общий поток                              : 4420 Кбит/сек
Дата кодирования                         : UTC 2014-12-24 14:42:44
Программа кодирования                    : mkvmerge v7.4.0 ('Circles') 64bit built on Dec 12 2014 12:19:56
Библиотека кодирования                   : libebml v1.3.0 + libmatroska v1.4.1
_STATISTICS_WRITING_APP                  : mkvmerge v7.4.0 ('Circles') 64bit built on Dec 12 2014 12:19:56
_STATISTICS_WRITING_DATE_UTC             : 2014-12-24 14:42:44
_STATISTICS_TAGS                         : BPS DURATION NUMBER_OF_FRAMES NUMBER_OF_BYTES
DURATION                                 : 02:00:51.648000000
NUMBER_OF_FRAMES                         : 226614
NUMBER_OF_BYTES                          : 174039552

Видео
Идентификатор                            : 1
Формат                                   : AVC
Формат/Информация                        : Advanced Video Codec
Профиль формата                          : Main@L3.1
Параметр CABAC формата                   : Нет
Параметр ReFrames формата                : 2 кадра
Идентификатор кодека                     : V_MPEG4/ISO/AVC
Продолжительность                        : 2 ч. 0 м.
Битрейт                                  : 4140 Кбит/сек
Ширина                                   : 1280 пикселей
Высота                                   : 538 пикселей
Соотношение сторон                       : 2,40:1
Режим частоты кадров                     : Постоянный
Частота кадров                           : 23,976 кадра/сек
Цветовое пространство                    : YUV
Субдискретизация насыщенности            : 4:2:0
Битовая глубина                          : 8 бит
Тип развёртки                            : Прогрессивная
Бит/(Пиксели*Кадры)                      : 0.251
Размер потока                            : 3,50 Гбайт (94%)
Заголовок                                : Rip by rwork
Язык                                     : English
Default                                  : Да
Forced                                   : Нет
Основные цвета                           : BT.709
Характеристики трансфера                 : BT.709
Коэффициенты матрицы                     : BT.709
colour_range                             : Limited

Аудио
Идентификатор                            : 2
Формат                                   : AC-3
Формат/Информация                        : Audio Coding 3
Расширение режима                        : CM (complete main)
Параметр Endianness формата              : Big
Идентификатор кодека                     : A_AC3
Продолжительность                        : 2 ч. 0 м.
Вид битрейта                             : Постоянный
Битрейт                                  : 192 Кбит/сек
Каналы                                   : 2 канала
Расположение каналов                     : Front: L R
Частота                                  : 48,0 КГц
Битовая глубина                          : 16 бит
Метод сжатия                             : С потерями
Размер потока                            : 166 Мбайт (4%)
Заголовок                                : MVO TV3
Язык                                     : Russian
Default                                  : Да
Forced                                   : Нет

Время раздачи: 7:00 до 23:00
[NNM-Club.me]_Peaceful_Warrior_720.torrent
 Торрент: Платиновая раздача  Зарегистрирован
 
Скачать


Примагнититься
 Зарегистрирован:   24 Дек 2014 18:09:07
 Размер:   3,73 GB  (
 Рейтинг:   4,9 (Голосов: 168)
 Поблагодарили:   671
 Проверка:   Оформление проверено модератором 25 Дек 2014 16:34:36
Как cкачать  ·  Как раздать  ·  Правильно оформить  ·  Поднять ратио!  
rworkx ®
Стаж: 5 лет 5 мес.
Сообщений: 95
Ratio: 16,421
Раздал: 4,235 TB
Поблагодарили: 6970
100%
Довольно хороший фильм, но на BR не выходил, так что такое качество на сегодняшний день - предел.
Приятного просмотра!
=)
noize-ii
Стаж: 6 лет
Сообщений: 6
Ratio: 19,508
3.7%
Скачаю, пораздаю с гигабита.
Olafff
 
Стаж: 10 лет
Сообщений: 720
Ratio: 6,623
100%
ussr.gif
Очень хороший фильм) Пасиба.
AntonDoc
Стаж: 5 лет 8 мес.
Сообщений: 6
Ratio: 18,946
2.7%
А похожие фильмы порекомендуете?
Pavelqq
Стаж: 6 лет 8 мес.
Сообщений: 64
Ratio: 2,284
100%
Почитайте книжки Миллмэна. Благо на сегодняшний день их на русский переведено, как минимум, 3.
Показать сообщения:   
Начать новую тему   Ответить на тему    Торрент-трекер NNM-Club -> Зарубежное кино -> Зарубежные Фильмы (HD, UHD-LQ) Часовой пояс: GMT + 3
Страница 1 из 1