Классический форум-трекер
canvas not supported
Нас вместе: 4 077 799

PBS: Сканеры древнего мира / Time scanners (2013) HDTVRip [H.264/720p] [1-6 серия из 6]


 
 
RSS
Начать новую тему   Ответить на тему    Торрент-трекер NNM-Club -> Зарубежные TV-бренды -> PBS
Автор Сообщение
Отец Лоренцо ®
Uploader 1000+, Сталкер
Стаж: 7 лет 8 мес.
Сообщений: 4040
Ratio: 7393,141
Раздал: 1,0172 PB
Поблагодарили: 121761
100%
Откуда: Харьков, Украина
PBS: Сканеры древнего мира / Time scanners (2013) HDTVRip [H.264/720p] [1-6 серия из 6]
Режиссер / Телекомпания: Том Штабберфилдз / Atlantic Productions, PBS
Страна: США
Год выпуска: 2011
Жанр: Документальный мини-сериал, архитектура

Продолжительность: 6 x ~ 00:43:48

Перевод: Одноголосый закадровый (профессиональный, студия АРК-ТВ, Игорь Тарадайкин)
Субтитры: отсутствуют

Формат файла: MKV
Видеокодек: MPEG-4 AVC/H.264
Битрейт видео: ~3 400 Кбит/с
Размер кадра: 1280 x 720
Качество видео: HDTVRip [720p]
Аудио: AC3, 2 ch, 192 Кбит/с

Описание: В сериале «Сканеры древнего мира» используется передовая технология трехмерного лазерного сканирования, которая позволяет раскрыть секреты самых примечательных построек мира. Исследованием руководит инженер-конструктор Стив Барроуз. Вместе с ним работают эксперты по лазерному сканированию из университета штата Арканзас. Они исследуют, сканируют и делают цифровой анализ архитектурных построек, внушающих благоговение всему человечеству, рассказывая при этом, насколько профессиональны были инженеры прошлого. Они побывают в Колизее, крепости Мачу-Пикчу, Соборе Св. Павла, Пирамидах и Иерусалиме.
01. Иерусалим / Jerusalem
От огромных стен Храмовой Горы до крепости на рукотворной горе Геродиума, команда инженеров исследует сооружения Иерусалима.
Имя файла: 01_Jerusalem.mkv
Размер файла: 1.08 GB
Длительность: 43mn 58s
Общий битрейт: 3 502 Kbps
Видео: AVC, 1280x720 (16:9), 25.000 fps, 3 500 Kbps / 3 500 Kbps (0.141 bit/pixel)
Аудио: AC-3, 48.0 KHz, 2 ch, 192 Kbps, CBR

02. Петра / Petra
Стив с командой отправляется в древнюю Петру, чтобы найти ответы на вековые вопросы с помощью технологии трехмерного лазерного сканирования.
Имя файла: 02_Petra.mkv
Размер файла: 1.08 GB
Длительность: 43mn 57s
Общий битрейт: 3 512 Kbps
Видео: AVC, 1280x720 (16:9), 25.000 fps, 3 500 Kbps / 3 500 Kbps (0.141 bit/pixel)
Аудио: AC-3, 48.0 KHz, 2 ch, 192 Kbps, CBR

03. Мачу-Пикчу / Machu Picchu
Команда экспертов с помощью новейшей аппаратуры исследует памятники архитектуры и воссоздаёт их такими, какими они были задуманы их создателями.
Имя файла: 03_Machu Picchu.mkv
Размер файла: 1.08 GB
Длительность: 43mn 46s
Общий битрейт: 3 530 Kbps
Видео: AVC, 1280x720 (16:9), 25.000 fps, 3 500 Kbps / 3 500 Kbps (0.142 bit/pixel)
Аудио: AC-3, 48.0 KHz, 2 ch, 192 Kbps, CBR

04. Колизей / Colosseum
Команда отправляется в Рим, надеясь раскрыть тайны Колизея с помощью данных высокотехнологичной сканирующей аппаратуры.
Имя файла: 04_Colosseum.mkv
Размер файла: 1.06 GB
Длительность: 43mn 58s
Общий битрейт: 3 458 Kbps
Видео: AVC, 1280x720 (16:9), 25.000 fps, 3 500 Kbps / 3 500 Kbps (0.139 bit/pixel)
Аудио: AC-3, 48.0 KHz, 2 ch, 192 Kbps, CBR

05. Собор Святого Павла / St.Pauls Cathedral
Инженер-строитель Стив Берроуз вместе с его командой специалистов по лазерному сканированию отправляется в собор Св. Павла в центре Лондона.
Имя файла: 05_St_Pauls_Cathedral.mkv
Размер файла: 1.07 GB
Длительность: 43mn 47s
Общий битрейт: 3 500 Kbps
Видео: AVC, 1280x720 (16:9), 25.000 fps, 3 500 Kbps / 3 500 Kbps (0.141 bit/pixel)
Аудио: AC-3, 48.0 KHz, 2 ch, 192 Kbps, CBR

06. Египетские пирамиды
Команда едет в Египет узнать о том, как пирамиды превратились из простых глинобитных построек в самые величественные сооружения Древнего мира.
Имя файла: 06_Egyptian Pyramids.mkv
Размер файла: 1.06 GB
Длительность: 43mn 57s
Общий битрейт: 3 446 Kbps
Видео: AVC, 1280x720 (16:9), 25.000 fps, 3 500 Kbps / 3 500 Kbps (0.138 bit/pixel)
Аудио: AC-3, 48.0 KHz, 2 ch, 192 Kbps, CBR
Общее
Уникальный идентификатор : 207820018398573870581176562682533654631 (0x9C58ADFD6421D0D5BA947E030BB63067)
Полное имя : D:\Релизы\Time.Scanners.720p\06_Egyptian Pyramids.mkv
Формат : Matroska
Версия формата : Version 4 / Version 2
Размер файла : 1,06 Гбайт
Продолжительность : 43 м.
Режим общего битрейта : Постоянный
Общий поток : 3446 Кбит/сек
Дата кодирования : UTC 2014-12-04 16:56:03
Программа кодирования : mkvmerge v7.3.0 ('Nouages') 64bit built on Oct 22 2014 18:53:34
Библиотека кодирования : libebml v1.3.0 + libmatroska v1.4.1
DURATION : 00:43:57.920000000
NUMBER_OF_FRAMES : 65948
NUMBER_OF_BYTES : 1072280606
_STATISTICS_WRITING_APP : mkvmerge v7.3.0 ('Nouages') 64bit built on Oct 22 2014 18:53:34
_STATISTICS_WRITING_DATE_UTC : 2014-12-04 16:56:03
_STATISTICS_TAGS : BPS DURATION NUMBER_OF_FRAMES NUMBER_OF_BYTES

Видео
Идентификатор : 1
Формат : AVC
Формат/Информация : Advanced Video Codec
Профиль формата : High@L3.1
Параметр CABAC формата : Да
Параметр ReFrames формата : 3 кадра
Идентификатор кодека : V_MPEG4/ISO/AVC
Продолжительность : 43 м.
Вид битрейта : Постоянный
Битрейт : 3185 Кбит/сек
Номинальный битрейт : 3500 Кбит/сек / 3500 Кбит/сек
Ширина : 1280 пикселей
Высота : 720 пикселей
Соотношение сторон : 16:9
Режим частоты кадров : Постоянный
Частота кадров : 25,000 кадров/сек
Стандарт вещания : NTSC
Цветовое пространство : YUV
Субдискретизация насыщенности : 4:2:0
Битовая глубина : 8 бит
Тип развёртки : Прогрессивная
Бит/(Пиксели*Кадры) : 0.138
Размер потока : 1002 Мбайт (92%)
Библиотека кодирования : x264 core 114
Настройки программы : cabac=1 / ref=3 / deblock=1:0:0 / analyse=0x3:0x113 / me=hex / subme=7 / psy=1 / psy_rd=1.00:0.00 / mixed_ref=1 / me_range=16 / chroma_me=1 / trellis=1 / 8x8dct=1 / cqm=2 / deadzone=21,11 / fast_pskip=1 / chroma_qp_offset=-2 / threads=6 / sliced_threads=0 / slices=1 / nr=0 / decimate=1 / interlaced=0 / constrained_intra=0 / bframes=3 / b_pyramid=0 / b_adapt=1 / b_bias=0 / direct=1 / weightb=1 / open_gop=0 / weightp=2 / keyint=250 / keyint_min=25 / scenecut=40 / intra_refresh=0 / rc_lookahead=40 / rc=cbr / mbtree=1 / bitrate=3500 / ratetol=1.0 / qcomp=0.60 / qpmin=3 / qpmax=69 / qpstep=4 / vbv_maxrate=3500 / vbv_bufsize=3489 / nal_hrd=cbr / ip_ratio=1.40 / aq=1:1.00
Default : Да
Forced : Нет
Основные цвета : BT.709
Характеристики трансфера : BT.709
Коэффициенты матрицы : BT.709

Аудио
Идентификатор : 2
Формат : AC-3
Формат/Информация : Audio Coding 3
Расширение режима : CM (complete main)
Параметр Endianness формата : Big
Идентификатор кодека : A_AC3
Продолжительность : 43 м.
Вид битрейта : Постоянный
Битрейт : 192 Кбит/сек
Каналы : 2 канала
Расположение каналов : Front: L R
Частота : 48,0 КГц
Битовая глубина : 16 бит
Метод сжатия : С потерями
Размер потока : 60,4 Мбайт (6%)
Default : Да
Forced : Нет
Скриншоты:
Пожалуйста, не уходите с раздачи - помогите докачать другим. Если понравился релиз - жмите кнопку "Спасибо"! :приветствую:

Время раздачи: 24 / 7

"PBS: Сканеры древнего мира / Time scanners" на NoNaMe Club

Релиз: skorpionN (R.G.BitTracker)
[NNM-Club.me]_Time.Scanners.720p.torrent
 Торрент: Платиновая раздача  Зарегистрирован
 
Скачать


Примагнититься
 Зарегистрирован:   24 Дек 2014 21:18:55
 Размер:   6,42 GB  (
 Рейтинг:   4,7 (Голосов: 61)
 Поблагодарили:   261
 Проверка:   Оформление проверено модератором 24 Дек 2014 21:26:51
Как cкачать  ·  Как раздать  ·  Правильно оформить  ·  Поднять ратио!  
LiLOF
Талант
Стаж: 6 лет 6 мес.
Сообщений: 864
Ratio: 0,952
Поблагодарили: 9
0.14%
Про высчитывание эпицентра бомбы классно. Остальное болтовня.
gen1002
Стаж: 4 года 7 мес.
Сообщений: 11
Ratio: 4,09
5.39%
Факты как всегда интересные, а комментарии о ручной работе с зубилом - полная чушь особенно кто хоть малость работал с камнем.....
ric00001971
Стаж: 8 лет 10 мес.
Сообщений: 208
Ratio: 1,15
100%
canada.gif
Какая-то бестолковая реклама "новейшего лазерного сканера". Купи сканер в течение 5 минут и получишь геолокатор в придачу абсолютно бесплатно :убится ап стену:
Ничего нового не узнал.
Про бомбу в соборе - вообще тупизм. И этот инженер чего-то построил? А откуда дыра в полу, Карл? :D
Релизеру спасибо.
Показать сообщения:   
Начать новую тему   Ответить на тему    Торрент-трекер NNM-Club -> Зарубежные TV-бренды -> PBS Часовой пояс: GMT + 3
Страница 1 из 1