Классический форум-трекер
canvas not supported
Нас вместе: 4 083 567
Платим за отзывы

Сделано в СССР. Советские клоуны (2014) WEBRip


 
 
RSS
Начать новую тему   Ответить на тему    Торрент-трекер NNM-Club -> Документалистика и Телепередачи -> Кинолетопись Страны Советской
Автор Сообщение
svlesin ®
Модератор Документалистики/TV
RG Releasers
Релизер 25000+ Uploader 300+
 
Стаж: 10 лет
Сообщений: 33793
Ratio: 1780,365
Поблагодарили: 3250495
100%
russia.gif
Сделано в СССР. Советские клоуны (2014) WEBRip
Режиссер / Телекомпания: МИР
Год выпуска: 2014
Жанр: Документальный

Описание:
В новом выпуске программы «Сделано в СССР» вы узнаете, какими хотело видеть клоунов советское правительство, чем отечественные работники цирка отличались от своих западных коллег и как объяснить массовый успех Олега Попова.
Советского человека можно было разбудить среди ночи и попросить перечислить любимых клоунов. Любой назвал бы без запинки 3-4 фамилии и при этом обязательно улыбнулся.
Родина всех клоунов являются европейский карнавал и итальянская комедия дель арте. Оттуда пришли две главные маски: рыжая от Арлекино и белая от Пьеро. Буффонадные клоуны - это набеленные маски, огромные рыжие парики, яркая одежда. Такие клоуны до сих пор короли смеха на Западе. Возможно, оставались бы королями и у нас, но советская действительность все отредактировала.

Режиссёр: Михаил Диговцов

Продолжительность: ~ 00:23:40

Видеокодек: XviD
Битрейт видео: ~1801 kb/s
Размер кадра: 688 x 512
Качество видео: WEBRip
Аудиокодек: MP3, 2ch.
Битрейт аудио: 128 kb/s
Формат : AVI
Формат/Информация : Audio Video Interleave
Размер файла : 328 Мбайт
Продолжительность : 23 м.
Общий поток : 1938 Кбит/сек
Программа кодирования : VirtualDubMod 1.5.10.3 | www.virtualdub-fr.org || (build 2550/release)
Библиотека кодирования : VirtualDubMod build 2550/release

Видео
Идентификатор : 0
Формат : MPEG-4 Visual
Профиль формата : Advanced Simple@L5
Параметр BVOP формата : 2
Параметр QPel формата : Нет
Параметр GMC формата : Без точки перехода
Параметр матрицы формата : Default (MPEG)
Идентификатор кодека : XVID
Идентификатор кодека/Подсказка : XviD
Продолжительность : 23 м.
Битрейт : 1800 Кбит/сек
Ширина : 688 пикселей
Высота : 512 пикселей
Соотношение сторон : 4:3
Частота кадров : 25,000 кадров/сек
Цветовое пространство : YUV
Субдискретизация насыщенности : 4:2:0
Битовая глубина : 8 бит
Тип развёртки : Прогрессивная
Метод сжатия : С потерями
Бит/(Пиксели*Кадры) : 0.204
Размер потока : 305 Мбайт (93%)
Библиотека кодирования : XviD 1.2.1 (UTC 2008-12-04)

Аудио
Идентификатор : 1
Формат : MPEG Audio
Версия формата : Version 1
Профиль формата : Layer 3
Идентификатор кодека : 55
Идентификатор кодека/Подсказка : MP3
Продолжительность : 23 м.
Вид битрейта : Постоянный
Битрейт : 128 Кбит/сек
Каналы : 2 канала
Частота : 48,0 КГц
Метод сжатия : С потерями
Размер потока : 21,7 Мбайт (7%)
Выравнивание : Соединение по промежуткам
Продолжительность промежутка : 40 мс. (1,00 видеокадр)
Время предзагрузки промежутка : 504 мс.
Библиотека кодирования : LAME3.99r
Настройки программы : -m s -V 4 -q 2 -lowpass 17 -b 128
Скриншоты:
Время раздачи: 24/7. До первых 5 скачавших.
Rip by Печаль
Сделано в СССР на NoNaMe Club
[NNM-Club.me]_Sdelano v SSSR. Sovetskie klounyi (2014).avi.torrent
 Торрент: Платиновая раздача  Зарегистрирован
 
Скачать


Примагнититься
 Зарегистрирован:   25 Дек 2014 21:48:41
 Размер:   328 MB  (
 Рейтинг:   4,4 (Голосов: 36)
 Поблагодарили:   127
 Проверка:   Оформление проверено модератором 25 Дек 2014 21:49:35
Как cкачать  ·  Как раздать  ·  Правильно оформить  ·  Поднять ратио!  

_________________
Уважаемые пользователи Клуба! От меня релизов больше не будет. Может быть, буду поддерживать «Обновляемые раздачи». Спасибо всем, кто благодарил меня и говорил/нажимал «Спасибо»!
Loading...
Показать сообщения:   
Начать новую тему   Ответить на тему    Торрент-трекер NNM-Club -> Документалистика и Телепередачи -> Кинолетопись Страны Советской Часовой пояс: GMT + 3
Страница 1 из 1