Классический форум-трекер
canvas not supported
Нас вместе: 4 083 491
Платим за отзывы

Tchaikovsky - Manfred Symphony (Mariss Jansons & Oslo Philharmonic Orchestra) (1992) [FLAC|Lossless]<Classical, Romantic Period, Orchestral, Symphony>


 
 
RSS
Начать новую тему   Ответить на тему    Торрент-трекер NNM-Club -> Классика -> Оркестровая (Lossless)
Автор Сообщение
halgen ®
Стаж: 9 лет 7 мес.
Сообщений: 673
Ratio: 214,895
Поблагодарили: 24625
100%
russia.gif
Tchaikovsky - Manfred Symphony (Mariss Jansons & Oslo Philharmonic Orchestra) (1992)
Дата: October 28, 1992
Жанр: Classical, Romantic Period, Orchestral, Symphony
Лейбл: Chandos
Номер по каталогу: 8535
Продолжительность: 00:53:21
Кодек: FLAC
Битрейт: Lossless
Тип рипа: image +.cue

Composer: Piotr Ilitch Tchaikovsky (1840-1893)
Conductor: Mariss Jansons
Ensemble: Oslo Philharmonic Orchestra


Треклист:
Manfred Symphony, for orchestra (or piano, 4 hands) in B minor, Op. 58
01. Lento lugubre - Moderato con motto (15:14)
02. Vivace con spirito (09:43)
03. Andante con moto (10:41)
04. Allegro con fuoco (17:43)
Код:

Exact Audio Copy V1.0 beta 3 from 29. August 2011

EAC extraction logfile from 29. August 2013, 19:12

Mariss Jansons / Tchaikovsky - Manfred Symphony - Mariss Jansons

Used drive  : TSSTcorpCDDVDW SH-222BB   Adapter: 2  ID: 1

Read mode               : Secure
Utilize accurate stream : Yes
Defeat audio cache      : Yes
Make use of C2 pointers : No

Read offset correction                      : 6
Overread into Lead-In and Lead-Out          : No
Fill up missing offset samples with silence : Yes
Delete leading and trailing silent blocks   : No
Null samples used in CRC calculations       : Yes
Used interface                              : Native Win32 interface for Win NT & 2000

Used output format              : User Defined Encoder
Selected bitrate                : 1024 kBit/s
Quality                         : High
Add ID3 tag                     : No
Command line compressor         : C:\Program Files\Exact Audio Copy\Flac\flac.exe
Additional command line options : -8 -V -T "TITLE=%title%" -T "ARTIST=%artist%" -T "ALBUMARTIST=%albumartist%" -T "ALBUM=%albumtitle%" -T "DATE=%year%" -T "TRACKNUMBER=%tracknr%" -T "TRACKTOTAL=%numtracks%" -T "GENRE=%genre%" -T "COMMENT=%comment%" -T "PERFORMER=%albuminterpret%" -T "COMPOSER=%composer%" %source% -o %dest%

TOC of the extracted CD

     Track |   Start  |  Length  | Start sector | End sector
    ---------------------------------------------------------
        1  |  0:00.32 | 15:14.20 |        32    |    68601
        2  | 15:14.52 |  9:43.30 |     68602    |   112356
        3  | 24:58.07 | 10:41.00 |    112357    |   160431
        4  | 35:39.07 | 17:43.13 |    160432    |   240169

Range status and errors

Selected range

     Filename G:\Ripped general\[2401] Tchaikovsky – Manfred Symphony – Mariss Jansons\Tchaikovsky - Manfred Symphony - Mariss Jansons.wav

     Peak level 81.4 %
     Extraction speed 2.3 X
     Range quality 100.0 %
     Test CRC DE23F8F8
     Copy CRC DE23F8F8
     Copy OK

No errors occurred

AccurateRip summary

Track  1  accurately ripped (confidence 3)  [18384E7E]  (AR v2)
Track  2  accurately ripped (confidence 3)  [AA9A986F]  (AR v2)
Track  3  accurately ripped (confidence 3)  [D8485D6E]  (AR v2)
Track  4  accurately ripped (confidence 3)  [06B188CD]  (AR v2)

All tracks accurately ripped

End of status report
Код:

-----------------------

DON'T MODIFY THIS FILE

-----------------------

PERFORMER: auCDtect Task Manager, ver. 1.5.1RC6 build 1.5.1.7
Copyright (c) 2008-2010 y-soft. All rights reserved
http://y-soft.org

ANALYZER: auCDtect: CD records authenticity detector, version 0.8.2
Copyright (c) 2004 Oleg Berngardt. All rights reserved.
Copyright (c) 2004 Alexander Djourik. All rights reserved.

FILE: Tchaikovsky - Manfred Symphony - Mariss Jansons.flac
  Size: 222935002 Hash: 3873EF8E168311AB6AE51B9B8F1A2F31 Accuracy: -m0
  Conclusion: CDDA 100%
  Signature: 28EBB6F379627433EFA01FAF1EBB345743260D49
Время раздачи: 19:00-24:00 msk
[NNM-Club.me]_Tchaikovsky – Manfred Symphony.torrent
 Торрент: Платиновая раздача  Зарегистрирован
 
Скачать


Примагнититься
 Зарегистрирован:   28 Дек 2014 02:33:24
 Размер:   222 MB  (
 Рейтинг:    (Голосов: 5)
 Поблагодарили:   20
 Проверка:   Оформление проверено модератором 11 Янв 2015 00:00:54
Как cкачать  ·  Как раздать  ·  Правильно оформить  ·  Поднять ратио!  
Loading...
artosan
Стаж: 7 лет 4 мес.
Сообщений: 14
Ratio: 11,449
86.05%
switzerland.gif
Чайковский с вирусами? что-то новенькое.
halgen ®
Стаж: 9 лет 7 мес.
Сообщений: 673
Ratio: 214,895
Поблагодарили: 24625
100%
russia.gif
artosan
К кому обращаемся?
И потом, в таких случаях принято говорить - а где факты?

_________________
А жизнь летит, и жить охота, и слепо мечутся сердца меж оптимизмом идиота и пессимизмом мудреца.
Показать сообщения:   
Начать новую тему   Ответить на тему    Торрент-трекер NNM-Club -> Классика -> Оркестровая (Lossless) Часовой пояс: GMT + 3
Страница 1 из 1