Классический форум-трекер
canvas not supported
Нас вместе: 4 079 435

Интерны. Новогодняя серия (2014) WEB-DL [H.264/720p]


 
 
RSS
Начать новую тему   Ответить на тему    Торрент-трекер NNM-Club -> Отечественные сериалы -> Интерны
Автор Сообщение
vova-salt ®
Модератор Книг
RG Книги
 
Стаж: 8 лет 6 мес.
Сообщений: 2915
Ratio: 12,039
Раздал: 1,278 TB
Поблагодарили: 608993
100%
Откуда: 43 регион
russia.gif
Интерны. Новогодняя серия (2014)
Русское название: Интерны
Производство: Россия, "Комеди Клаб Продакшн"
Год выпуска: 2014
Жанр: Комедия

Режиссер: Максим Пежемский, Дина Штурманова
Актеры: Иван Охлобыстин, Илья Глинников, Александр Ильин мл., Вадим Демчог, Светлана Камынина, Юлия Назаренко-Благая, Один Ланд Байрон, Светлана Пермякова, Илья Шидловский, Александр Ляпин, Аглая Тарасова

Описание фильма:
Жизнь обычной многопрофильной больницы - сплошная рутина. Ненормированный рабочий день, тяжелая, неблагодарная работа, а также инопланетяне, электрики, спивающийся венеролог, озабоченная медсестра, больной-эксгибиционист, ручная крыса, четыре интерна, которые все время расстраивают своего руководителя... Как Иван Охлобыстин в лице доктора Быкова справится со всей этой суетой?

Продолжительность: 00:24:13
Качество видео: WEB-DL

Видеокодек: AVC/H.264
Битрейт видео: 2879 Kbps
Размер кадра: 1280х720 (16:9)
Аудиокодек: AC-3
Битрейт аудио: AC3, 192 Кбит/сек, 2 ch, 48.0 KHz
Сэмпл: Скачать
Общее
Уникальный идентификатор : 240324820463052040957976966833820015398 (0xB4CCE076AE53C98CA05CFF1595021B26)
Полное имя : D:\Фильмы 1\Interny-11.(Novogodnyaya.seriya).2014.WEB-DL.(720p).mkv
Формат : Matroska
Версия формата : Version 2
Размер файла : 548 Мбайт
Продолжительность : 24 м.
Общий поток : 3133 Кбит/сек
Название фильма : Interny-11.(Novogodnyaya.seriya).2014.WEB-DL.(720p).MediaClub
Дата кодирования : UTC 2014-12-31 18:07:28
Программа кодирования : mkvmerge v5.8.0 ('No Sleep / Pillow') built on Sep 2 2012 15:37:04
Библиотека кодирования : libebml v1.2.3 + libmatroska v1.3.0

Видео
Идентификатор : 1
Формат : AVC
Формат/Информация : Advanced Video Codec
Профиль формата : High@L4.0
Параметр CABAC формата : Да
Параметр ReFrames формата : 8 кадров
Идентификатор кодека : V_MPEG4/ISO/AVC
Продолжительность : 24 м.
Битрейт : 2879 Кбит/сек
Ширина : 1280 пикселей
Высота : 720 пикселей
Соотношение сторон : 16:9
Режим частоты кадров : Постоянный
Частота кадров : 25,000 кадров/сек
Цветовое пространство : YUV
Субдискретизация насыщенности : 4:2:0
Битовая глубина : 8 бит
Тип развёртки : Прогрессивная
Бит/(Пиксели*Кадры) : 0.125
Размер потока : 503 Мбайт (92%)
Библиотека кодирования : x264 core 136
Настройки программы : cabac=1 / ref=8 / deblock=1:-1:-1 / analyse=0x3:0x133 / me=umh / subme=9 / psy=1 / psy_rd=1.00:0.15 / mixed_ref=1 / me_range=16 / chroma_me=1 / trellis=2 / 8x8dct=1 / cqm=0 / deadzone=21,11 / fast_pskip=1 / chroma_qp_offset=-3 / threads=18 / lookahead_threads=1 / sliced_threads=0 / nr=0 / decimate=1 / interlaced=0 / bluray_compat=0 / constrained_intra=0 / bframes=3 / b_pyramid=2 / b_adapt=2 / b_bias=0 / direct=3 / weightb=1 / open_gop=0 / weightp=2 / keyint=100 / keyint_min=10 / scenecut=40 / intra_refresh=0 / rc_lookahead=60 / rc=crf / mbtree=1 / crf=17.0 / qcomp=0.60 / qpmin=0 / qpmax=69 / qpstep=4 / vbv_maxrate=3600 / vbv_bufsize=3600 / crf_max=0.0 / nal_hrd=none / ip_ratio=1.40 / aq=1:1.00
Default : Да
Forced : Да

Аудио
Идентификатор : 2
Формат : AC-3
Формат/Информация : Audio Coding 3
Расширение режима : CM (complete main)
Параметр Endianness формата : Big
Идентификатор кодека : A_AC3
Продолжительность : 24 м.
Вид битрейта : Постоянный
Битрейт : 192 Кбит/сек
Каналы : 2 канала
Расположение каналов : Front: L R
Частота : 48,0 КГц
Битовая глубина : 16 бит
Метод сжатия : С потерями
Задержка видео : -80 мс.
Размер потока : 33,6 Мбайт (6%)
Язык : Russian
Default : Да
Forced : Да
Скриншоты:


Время раздачи: По возможности. До первых 5 сидов.
[NNM-Club.me]_Interny-11.(Novogodnyaya.seriya).2014.WEB-DL.(720p).mkv.torrent
 Торрент: Платиновая раздача  Зарегистрирован
 
Скачать


Примагнититься
 Зарегистрирован:   31 Дек 2014 22:57:41
 Размер:   548 MB  (
 Рейтинг:   4,4 (Голосов: 204)
 Поблагодарили:   845
 Проверка:   Оформление проверено модератором 01 Янв 2015 10:23:18
Как cкачать  ·  Как раздать  ·  Правильно оформить  ·  Поднять ратио!  
zvk
Только чтение
Стаж: 9 лет 6 мес.
Сообщений: 166
Ratio: 0,465
100%
bahamas.gif
ублюдочная хрень, дискредитирующая медицину
om42
Стаж: 10 лет 8 мес.
Сообщений: 216
Ratio: 18,317
11.88%
ussr.gif
zvk писал(а): Перейти к сообщению
ублюдочная [ерунда], дискредитирующая медицину


хмурое утро ? )))
DaggetMOV
Стаж: 9 лет 11 мес.
Сообщений: 182
Ratio: 12K
Поблагодарили: 8134
100%
nnm-club.gif
om42 писал(а): Перейти к сообщению
zvk писал(а): Перейти к сообщению
ублюдочная [ерунда], дискредитирующая медицину


хмурое утро ? )))

Не то слово :лол:
Andre62
Стаж: 8 лет 9 мес.
Сообщений: 342
Ratio: 4,884
100%
russia.gif
Но серия то слабовата явно.
savantik
Стаж: 10 лет
Сообщений: 341
Ratio: 9,055
Поблагодарили: 843
100%
Откуда: Волгоград
russia.gif
Не обессудьте, Видать у людей с Багамов, отсутствует чувство юмора.
lexer1037
Стаж: 9 лет 3 мес.
Сообщений: 122
Ratio: 22,063
Раздал: 3,578 TB
58.67%
чуть сдулся сериал
rogala51
Только чтение
Стаж: 5 лет 6 мес.
Сообщений: 919
Ratio: 4,005
100%
usa.gif
savantik писал(а): Перейти к сообщению
Не обессудьте, Видать у людей с Багамов, отсутствует чувство юмора.

Может человек не знает, что на Багамах отдыхает вся чернокожая Америка, люди цвета Обамы. Белые люди едут отдыхать на Гавайи.
А на Багамах.. ну неприятно как то.
no404error
Стаж: 10 лет
Сообщений: 10
Ratio: 1,598
20.76%
Откуда: Rzeczpospolita
poland.gif
Зачем постоянно делать апконверт аудио?

_________________
Ramzeskin
Стаж: 8 лет 3 мес.
Сообщений: 27
Ratio: 6,28
58.33%
russia.gif
Спасибо!
alero77
Стаж: 8 лет 1 мес.
Сообщений: 28
Ratio: 5,533
3.69%
russia.gif
zvk... на самом деле всё еще хуже... намного... и не так смешно.
профукали мы медицину, так что давайте хоть посмеемся над ней.
mestari
Стаж: 9 лет 7 мес.
Сообщений: 9
Ratio: 7,042
100%
zvk, alero77
Вы видимо перепутали формат проекта. Это развлекательный проект, акцент сделан не на медицину и её реалии, а на человеческие отношения. И что хорошо, в нём часто прослеживаются жизненные ситуации, которые имеют место в любом коллективе - и даётся верный посыл в сюжете - не ври, не бери чужого, не делай добра по секрету, не подставляй своего коллегу, не распускай ложных слухов.

Хотите больше медицины - смотрите "Доктора Хауса" или "Скорую помощь" - хорошие сериалы, в них чуть-чуть затрагиваются медицинские реалии, но уклон всё равно на отношения.

Снять сериал про медицину как она есть - это будет документальное кино, тяжёлое и не для всех.

В общем, то, что происходит в этом сериале, как и во многих других по теме - не имеет никакого отношения к реальной медицинской практике.
Показать сообщения:   
Начать новую тему   Ответить на тему    Торрент-трекер NNM-Club -> Отечественные сериалы -> Интерны Часовой пояс: GMT + 3
Страница 1 из 1