Классический форум-трекер
canvas not supported
Нас вместе: 4 089 462

Симпсоны / The Simpsons (2005) BDRip [720p] (сезон 17, серии 22 из 22)


 
 
RSS
Начать новую тему   Ответить на тему    Торрент-трекер NNM-Club -> Мультфильмы -> Зарубежные Мультсериалы
Автор Сообщение
pop4tune ®
 
Стаж: 9 лет 7 мес.
Сообщений: 705
Ratio: 58,668
Раздал: 19,7 TB
Поблагодарили: 2195
100%
micronesia.gif
Симпсоны / The Simpsons (2005)
Годы выхода: 2005-2006
Жанр: Рисованная анимация, Для взрослых, Комедия

Язык: английский, русский

Описание:
Симпсоны — самый длинный мультсериал в истории американского телевидения, состоящий из более чем 570 серий в 26 сезонах. Мультисериал в настоящее время знаком телезрителям более чем 100 стран. Это насыщенное сатирой (в том числе социальной) шоу высмеивает многие клише и стереотипы, в частности — стиль жизни «среднестатистического американца», особенности мировых культур в целом, знаменитостей и даже само телевидение и телеканал «Fox»; не стесняется затрагивать такие скользкие вопросы, как политика и религия: в частности, поднимались темы однополых браков, борьбы дарвинистов и креационистов, войны в Ираке. Журнал Time в 1998 году назвал «Симпсонов» лучшим телевизионным сериалом XX века.

Режиссер: разные
Персонажи: Гомер Симпсон, Мардж Симпсон, Барт Симпсон, Лиза Симпсон, Мэгги Симпсон и другие



Продолжительность: 22 серии по ~ 00:22:00
Качество видео: BDRip
Перевод: Двухголосый закадровый
Автор перевода: студия "Кипарис" по заказу Ren-TV
Язык субтитров: Английские
Вид субтитров: Вшитые

Видеокодек: MPEG-4 AVC/H.264
Битрейт видео: ~2500 kbps
Размер кадра: 960x720

Аудио:
Дорожка №1: Русский, AC3 2.0 ch, 48 kHz, ~192.00 kbps (Ren-TV)
Дорожка №2: Английский, DTS 5.1 ch, 48 kHz, 1509 Kbps
Код: выделить все

Общее
Уникальный идентификатор                 : 230014238174525989711064293841910567294 (0xAD0B21823DC26909B02EACB7EC2F117E)
Полное имя                               : The Simpsons Season 17 (BDRip 720p)\13. The Seemingly Never Ending Story.mkv
Формат                                   : Matroska
Версия формата                           : Version 2
Размер файла                             : 668 Мбайт
Продолжительность                        : 22 м.
Общий поток                              : 4227 Кбит/сек
Название фильма                          : The Simpsons Season 17 (BDRip | 720p | v.serij2013)
Дата кодирования                         : UTC 2014-12-13 23:43:38
Программа кодирования                    : mkvmerge v5.8.0 ('No Sleep / Pillow') built on Sep  2 2012 15:37:04
Библиотека кодирования                   : libebml v1.2.3 + libmatroska v1.3.0

Видео
Идентификатор                            : 1
Формат                                   : AVC
Формат/Информация                        : Advanced Video Codec
Профиль формата                          : High@L4.1
Параметр CABAC формата                   : Да
Параметр ReFrames формата                : 9 кадров
Идентификатор кодека                     : V_MPEG4/ISO/AVC
Продолжительность                        : 22 м.
Битрейт                                  : 2523 Кбит/сек
Ширина                                   : 960 пикселей
Высота                                   : 720 пикселей
Соотношение сторон                       : 4:3
Режим частоты кадров                     : Постоянный
Частота кадров                           : 23,976 кадра/сек
Цветовое пространство                    : YUV
Субдискретизация насыщенности            : 4:2:0
Битовая глубина                          : 8 бит
Тип развёртки                            : Прогрессивная
Бит/(Пиксели*Кадры)                      : 0.152
Размер потока                            : 386 Мбайт (58%)
Библиотека кодирования                   : x264 core 142 r2491 24e4fed
Настройки программы                      : cabac=1 / ref=9 / deblock=1:1:-1 / analyse=0x3:0x113 / me=umh / subme=10 / psy=1 / psy_rd=0.40:0.00 / mixed_ref=1 / me_range=24 / chroma_me=1 / trellis=2 / 8x8dct=1 / cqm=0 / deadzone=21,11 / fast_pskip=0 / chroma_qp_offset=-2 / threads=12 / lookahead_threads=2 / sliced_threads=0 / nr=0 / decimate=0 / interlaced=0 / bluray_compat=0 / constrained_intra=0 / bframes=8 / b_pyramid=2 / b_adapt=2 / b_bias=0 / direct=3 / weightb=1 / open_gop=0 / weightp=2 / keyint=250 / keyint_min=23 / scenecut=40 / intra_refresh=0 / rc=2pass / mbtree=0 / bitrate=2523 / ratetol=1.0 / qcomp=0.60 / qpmin=0 / qpmax=69 / qpstep=4 / cplxblur=20.0 / qblur=0.5 / ip_ratio=1.40 / pb_ratio=1.30 / aq=1:0.50
Язык                                     : English
Default                                  : Да
Forced                                   : Нет

Аудио #1
Идентификатор                            : 2
Формат                                   : AC-3
Формат/Информация                        : Audio Coding 3
Расширение режима                        : CM (complete main)
Параметр Endianness формата              : Big
Идентификатор кодека                     : A_AC3
Продолжительность                        : 22 м.
Вид битрейта                             : Постоянный
Битрейт                                  : 192 Кбит/сек
Каналы                                   : 2 канала
Расположение каналов                     : Front: L R
Частота                                  : 48,0 КГц
Битовая глубина                          : 16 бит
Метод сжатия                             : С потерями
Размер потока                            : 30,4 Мбайт (5%)
Заголовок                                : DVO (РЕН-ТВ)
Язык                                     : Russian
Default                                  : Да
Forced                                   : Нет

Аудио #2
Идентификатор                            : 3
Формат                                   : DTS
Формат/Информация                        : Digital Theater Systems
Режим                                    : 16
Параметр Endianness формата              : Big
Идентификатор кодека                     : A_DTS
Продолжительность                        : 22 м.
Вид битрейта                             : Постоянный
Битрейт                                  : 1509 Кбит/сек
Каналы                                   : 6 каналов
Расположение каналов                     : Front: L C R, Side: L R, LFE
Частота                                  : 48,0 КГц
Битовая глубина                          : 24 бит
Метод сжатия                             : С потерями
Размер потока                            : 239 Мбайт (36%)
Заголовок                                : Original
Язык                                     : English
Default                                  : Нет
Forced                                   : Нет

Текст
Идентификатор                            : 4
Формат                                   : UTF-8
Идентификатор кодека                     : S_TEXT/UTF8
Идентификатор кодека/Информация          : UTF-8 Plain Text
Заголовок                                : SDH
Язык                                     : English
Default                                  : Нет
Forced                                   : Нет

Меню
00:00:00.000                             : en:Main Title
00:00:25.776                             : en:Our God made their God
00:05:34.042                             : en:Hi ho Smiters, away!
00:08:18.373                             : en:Could you be any more pre-Columbian?
00:15:37.228                             : en:Not so fast shady Bird Johnson
00:21:10.227                             : en:End Credits
Скриншоты:
Время раздачи: До первых 5 скачавших. Пожалуйста, оставайтесь на раздаче!
Также рекомендую:
13 сезон в 1080p с оригинальной DTS-дорогой
14 сезон в 720p с оригинальной DTS-дорогой и субтитрами
15 сезон в 720p RU/UKR/ENG с английскими сабами
16 сезон в 720p с оригинальной DTS-дорогой и субтитрами
Симпсоны на Шоу Трейси Ульман (1987-1989) самые первые короткие серии
[NNM-Club.me]_The Simpsons Season 17 (BDRip 720p).torrent
 Торрент: Платиновая раздача  Зарегистрирован
 
Скачать


Примагнититься
 Зарегистрирован:   03 Янв 2015 15:39:43
 Размер:   14,4 GB  (
 Рейтинг:   4,5 (Голосов: 31)
 Поблагодарили:   78
 Проверка:   Оформление проверено модератором 04 Янв 2015 22:39:56
Как cкачать  ·  Как раздать  ·  Правильно оформить  ·  Поднять ратио!  
almikl
Куратор Детского.
Модератор Видео.
RG Всё лучшее - детям!
Uploader 500+
 
Стаж: 11 лет 3 мес.
Сообщений: 4319
Ratio: 284,881
Поблагодарили: 82750
100%
Откуда: Дааалекое Подмосковье
russia.gif
Заголовок : Симпсоны / The Simpsons (полный 17 сезон, серии 22 из 22) (2005) BDRip [720p]
Скриншоты: 4ре без перехода на сайт фотохостинга, остальные под hide
pop4tune ®
 
Стаж: 9 лет 7 мес.
Сообщений: 705
Ratio: 58,668
Раздал: 19,7 TB
Поблагодарили: 2195
100%
micronesia.gif
almikl
сделал.
Валентин Новосельцев
Стаж: 4 года 2 мес.
Сообщений: 7
Ratio: 0,193
0%
Жаль, в этом сезоне нет голоса Быстрова! А очень его хотелось бы услышать!
Показать сообщения:   
Начать новую тему   Ответить на тему    Торрент-трекер NNM-Club -> Мультфильмы -> Зарубежные Мультсериалы Часовой пояс: GMT + 3
Страница 1 из 1