Классический форум-трекер
canvas not supported
Нас вместе: 4 104 116

Machinedrum - Vapor City (2013) [FLAC|Lossless|WEB-DL|24/44,1] <Drum & Bass, UK Garage, Juke>


 
 
RSS
Начать новую тему   Ответить на тему    Торрент-трекер NNM-Club -> HD Audio и Многоканальная Музыка -> WEB-DL-Audio
Автор Сообщение
Fraudy ®
Стаж: 10 лет 3 мес.
Сообщений: 2178
Ratio: 140,374
Раздал: 51,08 TB
Поблагодарили: 58359
100%
ussr.gif
Machinedrum - Vapor City (2013)


Год: 2013
Жанр: Drum & Bass, UK Garage, Juke
Лейбл: Ninja Tune
Каталог#: ZENDNL200H
Продолжительность: 00:53:05

Кодек: FLAC
Битрейт: Lossless
Тип рипа: tracks

Треклист:
01. Gunshotta (05:46)
02. Infinite Us (07:11)
03. Don't 1 2 Lose U (04:18)
04. Center Your Love (04:46)
05. Vizion (02:39)
06. Rise N Fall (05:36)
07. SeeSea (04:17)
08. U Still Lie (04:29)
09. Eyesdontlie (06:39)
10. Baby It's U (07:24)


Код:

Общее
Полное имя                               : H:\RELIZ 3\Machinedrum - Vapor City - 2013 - FLAC [24bit]\01 - Gunshotta.flac
Формат                                   : FLAC
Формат/Информация                        : Free Lossless Audio Codec
Размер файла                             : 64,0 Мбайт
Продолжительность                        : 5 м. 46 с.
Режим общего битрейта                    : Переменный
Общий поток                              : 1551 Кбит/сек
Нормализатор звука альбома               : -3,41 дБ
Пик нормализатора звука альбома          : 0.891374
Альбом                                   : Vapor City
Альбом/Исполнитель                       : Machinedrum
Часть                                    : 1
Часть/Всего                              : 1
Трек                                     : Gunshotta
Трек/Положение                           : 01
Трек/Всего                               : 10
Исполнитель                              : Machinedrum
Продюсер                                 : Ninja Tune | ZENDNL200H
Жанр                                     : Drum & Bass, UK Garage, Juke
Дата записи                              : 2013
BPM                                      : 151
Обложка                                  : Yes
Тип обложки                              : Cover (front)
MIME-тип обложки                         : image/jpeg
ARTISTSORTORDER                          : Machinedrum

Аудио
Формат                                   : FLAC
Формат/Информация                        : Free Lossless Audio Codec
Продолжительность                        : 5 м. 46 с.
Вид битрейта                             : Переменный
Битрейт                                  : 1545 Кбит/сек
Каналы                                   : 2 канала
Частота                                  : 44,1 КГц
Битовая глубина                          : 24 бит
Нормализатор звука                       : -3,90 дБ
Пик нормализатор звука                   : 0.891296
Размер потока                            : 63,8 Мбайт (100%)
Библиотека кодирования                   : libFLAC 1.2.1 (UTC 2007-09-17)

Общее
Полное имя                               : H:\RELIZ 3\Machinedrum - Vapor City - 2013 - FLAC [24bit]\02 - Infinite Us.flac
Формат                                   : FLAC
Формат/Информация                        : Free Lossless Audio Codec
Размер файла                             : 75,0 Мбайт
Продолжительность                        : 7 м. 11 с.
Режим общего битрейта                    : Переменный
Общий поток                              : 1459 Кбит/сек
Нормализатор звука альбома               : -3,41 дБ
Пик нормализатора звука альбома          : 0.891374
Альбом                                   : Vapor City
Альбом/Исполнитель                       : Machinedrum
Часть                                    : 1
Часть/Всего                              : 1
Трек                                     : Infinite Us
Трек/Положение                           : 02
Трек/Всего                               : 10
Исполнитель                              : Machinedrum
Продюсер                                 : Ninja Tune | ZENDNL200H
Жанр                                     : Drum & Bass, UK Garage, Juke
Дата записи                              : 2013
BPM                                      : 183
Обложка                                  : Yes
Тип обложки                              : Cover (front)
MIME-тип обложки                         : image/jpeg
ARTISTSORTORDER                          : Machinedrum

Аудио
Формат                                   : FLAC
Формат/Информация                        : Free Lossless Audio Codec
Продолжительность                        : 7 м. 11 с.
Вид битрейта                             : Переменный
Битрейт                                  : 1454 Кбит/сек
Каналы                                   : 2 канала
Частота                                  : 44,1 КГц
Битовая глубина                          : 24 бит
Нормализатор звука                       : -1,99 дБ
Пик нормализатор звука                   : 0.891295
Размер потока                            : 74,8 Мбайт (100%)
Библиотека кодирования                   : libFLAC 1.2.1 (UTC 2007-09-17)

Общее
Полное имя                               : H:\RELIZ 3\Machinedrum - Vapor City - 2013 - FLAC [24bit]\03 - Don't 1 2 Lose U.flac
Формат                                   : FLAC
Формат/Информация                        : Free Lossless Audio Codec
Размер файла                             : 45,1 Мбайт
Продолжительность                        : 4 м. 17 с.
Режим общего битрейта                    : Переменный
Общий поток                              : 1470 Кбит/сек
Нормализатор звука альбома               : -3,41 дБ
Пик нормализатора звука альбома          : 0.891374
Альбом                                   : Vapor City
Альбом/Исполнитель                       : Machinedrum
Часть                                    : 1
Часть/Всего                              : 1
Трек                                     : Don't 1 2 Lose U
Трек/Положение                           : 03
Трек/Всего                               : 10
Исполнитель                              : Machinedrum
Продюсер                                 : Ninja Tune | ZENDNL200H
Жанр                                     : Drum & Bass, UK Garage, Juke
Дата записи                              : 2013
BPM                                      : 163
Обложка                                  : Yes
Тип обложки                              : Cover (front)
MIME-тип обложки                         : image/jpeg
ARTISTSORTORDER                          : Machinedrum

Аудио
Формат                                   : FLAC
Формат/Информация                        : Free Lossless Audio Codec
Продолжительность                        : 4 м. 17 с.
Вид битрейта                             : Переменный
Битрейт                                  : 1462 Кбит/сек
Каналы                                   : 2 канала
Частота                                  : 44,1 КГц
Битовая глубина                          : 24 бит
Нормализатор звука                       : -3,51 дБ
Пик нормализатор звука                   : 0.891266
Размер потока                            : 44,9 Мбайт (99%)
Библиотека кодирования                   : libFLAC 1.2.1 (UTC 2007-09-17)

Общее
Полное имя                               : H:\RELIZ 3\Machinedrum - Vapor City - 2013 - FLAC [24bit]\04 - Center Your Love.flac
Формат                                   : FLAC
Формат/Информация                        : Free Lossless Audio Codec
Размер файла                             : 53,4 Мбайт
Продолжительность                        : 4 м. 46 с.
Режим общего битрейта                    : Переменный
Общий поток                              : 1566 Кбит/сек
Нормализатор звука альбома               : -3,41 дБ
Пик нормализатора звука альбома          : 0.891374
Альбом                                   : Vapor City
Альбом/Исполнитель                       : Machinedrum
Часть                                    : 1
Часть/Всего                              : 1
Трек                                     : Center Your Love
Трек/Положение                           : 04
Трек/Всего                               : 10
Исполнитель                              : Machinedrum
Продюсер                                 : Ninja Tune | ZENDNL200H
Жанр                                     : Drum & Bass, UK Garage, Juke
Дата записи                              : 2013
BPM                                      : 95
Обложка                                  : Yes
Тип обложки                              : Cover (front)
MIME-тип обложки                         : image/jpeg
ARTISTSORTORDER                          : Machinedrum

Аудио
Формат                                   : FLAC
Формат/Информация                        : Free Lossless Audio Codec
Продолжительность                        : 4 м. 46 с.
Вид битрейта                             : Переменный
Битрейт                                  : 1559 Кбит/сек
Каналы                                   : 2 канала
Частота                                  : 44,1 КГц
Битовая глубина                          : 24 бит
Нормализатор звука                       : -3,50 дБ
Пик нормализатор звука                   : 0.891318
Размер потока                            : 53,2 Мбайт (100%)
Библиотека кодирования                   : libFLAC 1.2.1 (UTC 2007-09-17)

Общее
Полное имя                               : H:\RELIZ 3\Machinedrum - Vapor City - 2013 - FLAC [24bit]\05 - Vizion.flac
Формат                                   : FLAC
Формат/Информация                        : Free Lossless Audio Codec
Размер файла                             : 28,5 Мбайт
Продолжительность                        : 2 м. 38 с.
Режим общего битрейта                    : Переменный
Общий поток                              : 1505 Кбит/сек
Нормализатор звука альбома               : -3,41 дБ
Пик нормализатора звука альбома          : 0.891374
Альбом                                   : Vapor City
Альбом/Исполнитель                       : Machinedrum
Часть                                    : 1
Часть/Всего                              : 1
Трек                                     : Vizion
Трек/Положение                           : 05
Трек/Всего                               : 10
Исполнитель                              : Machinedrum
Продюсер                                 : Ninja Tune | ZENDNL200H
Жанр                                     : Drum & Bass, UK Garage, Juke
Дата записи                              : 2013
BPM                                      : 183
Обложка                                  : Yes
Тип обложки                              : Cover (front)
MIME-тип обложки                         : image/jpeg
ARTISTSORTORDER                          : Machinedrum

Аудио
Формат                                   : FLAC
Формат/Информация                        : Free Lossless Audio Codec
Продолжительность                        : 2 м. 38 с.
Вид битрейта                             : Переменный
Битрейт                                  : 1492 Кбит/сек
Каналы                                   : 2 канала
Частота                                  : 44,1 КГц
Битовая глубина                          : 24 бит
Нормализатор звука                       : -2,21 дБ
Пик нормализатор звука                   : 0.859360
Размер потока                            : 28,3 Мбайт (99%)
Библиотека кодирования                   : libFLAC 1.2.1 (UTC 2007-09-17)

Общее
Полное имя                               : H:\RELIZ 3\Machinedrum - Vapor City - 2013 - FLAC [24bit]\06 - Rise N Fall.flac
Формат                                   : FLAC
Формат/Информация                        : Free Lossless Audio Codec
Размер файла                             : 62,9 Мбайт
Продолжительность                        : 5 м. 35 с.
Режим общего битрейта                    : Переменный
Общий поток                              : 1571 Кбит/сек
Нормализатор звука альбома               : -3,41 дБ
Пик нормализатора звука альбома          : 0.891374
Альбом                                   : Vapor City
Альбом/Исполнитель                       : Machinedrum
Часть                                    : 1
Часть/Всего                              : 1
Трек                                     : Rise n Fall
Трек/Положение                           : 06
Трек/Всего                               : 10
Исполнитель                              : Machinedrum
Продюсер                                 : Ninja Tune | ZENDNL200H
Жанр                                     : Drum & Bass, UK Garage, Juke
Дата записи                              : 2013
BPM                                      : 146
Обложка                                  : Yes
Тип обложки                              : Cover (front)
MIME-тип обложки                         : image/jpeg
ARTISTSORTORDER                          : Machinedrum

Аудио
Формат                                   : FLAC
Формат/Информация                        : Free Lossless Audio Codec
Продолжительность                        : 5 м. 35 с.
Вид битрейта                             : Переменный
Битрейт                                  : 1565 Кбит/сек
Каналы                                   : 2 канала
Частота                                  : 44,1 КГц
Битовая глубина                          : 24 бит
Нормализатор звука                       : -4,03 дБ
Пик нормализатор звука                   : 0.891266
Размер потока                            : 62,7 Мбайт (100%)
Библиотека кодирования                   : libFLAC 1.2.1 (UTC 2007-09-17)

Общее
Полное имя                               : H:\RELIZ 3\Machinedrum - Vapor City - 2013 - FLAC [24bit]\07 - SeeSea.flac
Формат                                   : FLAC
Формат/Информация                        : Free Lossless Audio Codec
Размер файла                             : 50,4 Мбайт
Продолжительность                        : 4 м. 16 с.
Режим общего битрейта                    : Переменный
Общий поток                              : 1645 Кбит/сек
Нормализатор звука альбома               : -3,41 дБ
Пик нормализатора звука альбома          : 0.891374
Альбом                                   : Vapor City
Альбом/Исполнитель                       : Machinedrum
Часть                                    : 1
Часть/Всего                              : 1
Трек                                     : SeeSea
Трек/Положение                           : 07
Трек/Всего                               : 10
Исполнитель                              : Machinedrum
Продюсер                                 : Ninja Tune | ZENDNL200H
Жанр                                     : Drum & Bass, UK Garage, Juke
Дата записи                              : 2013
BPM                                      : 39
Обложка                                  : Yes
Тип обложки                              : Cover (front)
MIME-тип обложки                         : image/jpeg
ARTISTSORTORDER                          : Machinedrum

Аудио
Формат                                   : FLAC
Формат/Информация                        : Free Lossless Audio Codec
Продолжительность                        : 4 м. 16 с.
Вид битрейта                             : Переменный
Битрейт                                  : 1637 Кбит/сек
Каналы                                   : 2 канала
Частота                                  : 44,1 КГц
Битовая глубина                          : 24 бит
Нормализатор звука                       : -2,78 дБ
Пик нормализатор звука                   : 0.891354
Размер потока                            : 50,1 Мбайт (100%)
Библиотека кодирования                   : libFLAC 1.2.1 (UTC 2007-09-17)

Общее
Полное имя                               : H:\RELIZ 3\Machinedrum - Vapor City - 2013 - FLAC [24bit]\08 - U Still Lie.flac
Формат                                   : FLAC
Формат/Информация                        : Free Lossless Audio Codec
Размер файла                             : 47,4 Мбайт
Продолжительность                        : 4 м. 28 с.
Режим общего битрейта                    : Переменный
Общий поток                              : 1481 Кбит/сек
Нормализатор звука альбома               : -3,41 дБ
Пик нормализатора звука альбома          : 0.891374
Альбом                                   : Vapor City
Альбом/Исполнитель                       : Machinedrum
Часть                                    : 1
Часть/Всего                              : 1
Трек                                     : U Still Lie
Трек/Положение                           : 08
Трек/Всего                               : 10
Исполнитель                              : Machinedrum
Продюсер                                 : Ninja Tune | ZENDNL200H
Жанр                                     : Drum & Bass, UK Garage, Juke
Дата записи                              : 2013
BPM                                      : 120
Обложка                                  : Yes
Тип обложки                              : Cover (front)
MIME-тип обложки                         : image/jpeg
ARTISTSORTORDER                          : Machinedrum

Аудио
Формат                                   : FLAC
Формат/Информация                        : Free Lossless Audio Codec
Продолжительность                        : 4 м. 28 с.
Вид битрейта                             : Переменный
Битрейт                                  : 1473 Кбит/сек
Каналы                                   : 2 канала
Частота                                  : 44,1 КГц
Битовая глубина                          : 24 бит
Нормализатор звука                       : -4,09 дБ
Пик нормализатор звука                   : 0.891374
Размер потока                            : 47,2 Мбайт (99%)
Библиотека кодирования                   : libFLAC 1.2.1 (UTC 2007-09-17)

Общее
Полное имя                               : H:\RELIZ 3\Machinedrum - Vapor City - 2013 - FLAC [24bit]\09 - Eyesdontlie.flac
Формат                                   : FLAC
Формат/Информация                        : Free Lossless Audio Codec
Размер файла                             : 73,8 Мбайт
Продолжительность                        : 6 м. 39 с.
Режим общего битрейта                    : Переменный
Общий поток                              : 1552 Кбит/сек
Нормализатор звука альбома               : -3,41 дБ
Пик нормализатора звука альбома          : 0.891374
Альбом                                   : Vapor City
Альбом/Исполнитель                       : Machinedrum
Часть                                    : 1
Часть/Всего                              : 1
Трек                                     : Eyesdontlie
Трек/Положение                           : 09
Трек/Всего                               : 10
Исполнитель                              : Machinedrum
Продюсер                                 : Ninja Tune | ZENDNL200H
Жанр                                     : Drum & Bass, UK Garage, Juke
Дата записи                              : 2013
BPM                                      : 174
Обложка                                  : Yes
Тип обложки                              : Cover (front)
MIME-тип обложки                         : image/jpeg
ARTISTSORTORDER                          : Machinedrum

Аудио
Формат                                   : FLAC
Формат/Информация                        : Free Lossless Audio Codec
Продолжительность                        : 6 м. 39 с.
Вид битрейта                             : Переменный
Битрейт                                  : 1547 Кбит/сек
Каналы                                   : 2 канала
Частота                                  : 44,1 КГц
Битовая глубина                          : 24 бит
Нормализатор звука                       : -3,42 дБ
Пик нормализатор звука                   : 0.886304
Размер потока                            : 73,6 Мбайт (100%)
Библиотека кодирования                   : libFLAC 1.2.1 (UTC 2007-09-17)

Общее
Полное имя                               : H:\RELIZ 3\Machinedrum - Vapor City - 2013 - FLAC [24bit]\10 - Baby It's U.flac
Формат                                   : FLAC
Формат/Информация                        : Free Lossless Audio Codec
Размер файла                             : 73,4 Мбайт
Продолжительность                        : 7 м. 23 с.
Режим общего битрейта                    : Переменный
Общий поток                              : 1388 Кбит/сек
Нормализатор звука альбома               : -3,41 дБ
Пик нормализатора звука альбома          : 0.891374
Альбом                                   : Vapor City
Альбом/Исполнитель                       : Machinedrum
Часть                                    : 1
Часть/Всего                              : 1
Трек                                     : Baby It's U
Трек/Положение                           : 10
Трек/Всего                               : 10
Исполнитель                              : Machinedrum
Продюсер                                 : Ninja Tune | ZENDNL200H
Жанр                                     : Drum & Bass, UK Garage, Juke
Дата записи                              : 2013
BPM                                      : 184
Обложка                                  : Yes
Тип обложки                              : Cover (front)
MIME-тип обложки                         : image/jpeg
ARTISTSORTORDER                          : Machinedrum

Аудио
Формат                                   : FLAC
Формат/Информация                        : Free Lossless Audio Codec
Продолжительность                        : 7 м. 23 с.
Вид битрейта                             : Переменный
Битрейт                                  : 1384 Кбит/сек
Каналы                                   : 2 канала
Частота                                  : 44,1 КГц
Битовая глубина                          : 24 бит
Нормализатор звука                       : -2,84 дБ
Пик нормализатор звука                   : 0.886005
Размер потока                            : 73,2 Мбайт (100%)
Библиотека кодирования                   : libFLAC 1.2.1 (UTC 2007-09-17)

Общее
Полное имя                               : H:\RELIZ 3\Machinedrum - Vapor City - 2013 - FLAC [24bit]\cover.jpg
Формат                                   : JPEG
Размер файла                             : 1,17 Мбайт

Изображения
Формат                                   : JPEG
Ширина                                   : 1400 пикселей
Высота                                   : 1400 пикселей
Цветовое пространство                    : YUV
Субдискретизация насыщенности            : 4:2:0
Битовая глубина                          : 8 бит
Метод сжатия                             : С потерями
Размер потока                            : 1,17 Мбайт (100%)

Общее
Полное имя                               : H:\RELIZ 3\Machinedrum - Vapor City - 2013 - FLAC [24bit]\Vapor City.m3u
Размер файла                             : 228 байт


YouTubeYouTubeYouTubeYouTube

Время раздачи: До 5 сидов
[NNM-Club.me]_Machinedrum - Vapor City - 2013 - FLAC [24bit].torrent
 Торрент: Платиновая раздача  Зарегистрирован
 
Скачать


Примагнититься
 Зарегистрирован:   11 Янв 2015 04:26:50
 Размер:   573 MB  (
 Рейтинг:   3,9 (Голосов: 13)
 Поблагодарили:   38
 Проверка:   Оформление проверено модератором 14 Янв 2015 01:40:32
Как cкачать  ·  Как раздать  ·  Правильно оформить  ·  Поднять ратио!  
Fraudy ®
Стаж: 10 лет 3 мес.
Сообщений: 2178
Ratio: 140,374
Раздал: 51,08 TB
Поблагодарили: 58359
100%
ussr.gif
Machinedrum - Vapor City Archives (2014) [FLAC|Lossless] <Drum & Bass, Ambient, Footwork>
3,8 однако довольно любопытно :супер!:

_________________
Искусство должно принадлежать народу © В.И. Ульянов-Ленин™
vivissimus
Стаж: 4 года 8 мес.
Сообщений: 26
Ratio: 5,135
Поблагодарили: 2
100%
Сидер вроде есть, но не качает (
Показать сообщения:   
Начать новую тему   Ответить на тему    Торрент-трекер NNM-Club -> HD Audio и Многоканальная Музыка -> WEB-DL-Audio Часовой пояс: GMT + 3
Страница 1 из 1