Классический форум-трекер
canvas not supported
Нас вместе: 4 117 953

ПиКей / PK (2014) BDRip [H.264/720p-LQ] [MVO] [PR]


Страницы:  1, 2, 3, 4  След. 
 
RSS
Начать новую тему   Ответить на тему    Торрент-трекер NNM-Club -> Зарубежное кино -> Индийское кино
Автор Сообщение
ra3wa ®
Модератор Видео
RG Releasers
Uploader 100+
 
Стаж: 10 лет
Сообщений: 13266
Ratio: 10K
Раздал: 481,3 TB
Поблагодарили: 2617971
100%
Откуда: Воронеж
russia.gif
ПиКей / PK (2014) BDRip
Производство: Индия
Жанр: Фэнтези, драма, мелодрама, комедия, детектив

Режиссер: Раджкумар Хирани
Актеры: Аамир Кхан, Анушка Шарма, Санджай Датт, Боман Ирани, Саурабх Шукла, Сушант Сингх Раджпут, Парикшит Сахни, Амардип Джа, Рима Дебнатх, Диру Дривэди

Описание:
ПиКей, инопланетянин, высаживается на Землю в городе, расположенном в пустыне Раджастан, для изучения человеческой природы и жизни на Земле. Но планета встретила его довольно грубо — у него украли пульт дистанционного управления, с помощью которого он держал связь с космическим кораблем. Теперь он должен найти пульт, а до тех пор ему придется выживать на Земле по-своему. ПиКей задает вопросы, которые никто не задавал раньше. Его детское любопытство приводит к катастрофическим последствиям. Люди, сформировавшиеся на протяжении многих поколений, вынуждены переоценивать свой мир, глядя на него невинными глазами ПиКея.

Перевод: Любительский двухголосый (den904&DeadSno)
Субтитры: Русские (только к словам песни)



Продолжительность: 02:32:18
Качество видео: BDRip (720p-LQ)

Видео: AVC/H.264, 1280x534, ~2150 Кбит/с
Аудио 1: AC3, 2 ch, 192 Кбит/с - русский
Аудио 1: AC3, 2 ch, 384 Кбит/с - хинди

Общее
Уникальный идентификатор : 245517273311181807642213223583766678291 (0xB8B4E8278BE47B1B8752F953C04E0B13)
Полное имя : C:\NNM\ПиКей\PK 2014 BDRip 720p-LQ.mkv
Формат : Matroska
Версия формата : Version 4 / Version 2
Размер файла : 2,90 Гбайт
Продолжительность : 2 ч. 32 м.
Общий поток : 2728 Кбит/сек
Дата кодирования : UTC 2015-01-10 19:36:15
Программа кодирования : mkvmerge v7.2.0 ('On Every Street') 64bit built on Sep 13 2014 15:52:10
Библиотека кодирования : libebml v1.3.0 + libmatroska v1.4.1
DURATION : 02:32:18.144000000
NUMBER_OF_FRAMES : 285567
NUMBER_OF_BYTES : 219315456
_STATISTICS_WRITING_APP : mkvmerge v7.2.0 ('On Every Street') 64bit built on Sep 13 2014 15:52:10
_STATISTICS_WRITING_DATE_UTC : 2015-01-10 19:36:15
_STATISTICS_TAGS : BPS DURATION NUMBER_OF_FRAMES NUMBER_OF_BYTES

Видео
Идентификатор : 1
Формат : AVC
Формат/Информация : Advanced Video Codec
Профиль формата : High@L4.1
Параметр CABAC формата : Да
Параметр ReFrames формата : 8 кадров
Идентификатор кодека : V_MPEG4/ISO/AVC
Продолжительность : 2 ч. 32 м.
Битрейт : 2150 Кбит/сек
Ширина : 1280 пикселей
Высота : 534 пикселя
Соотношение сторон : 2,40:1
Частота кадров : 24,000 кадра/сек
Цветовое пространство : YUV
Субдискретизация насыщенности : 4:2:0
Битовая глубина : 8 бит
Тип развёртки : Прогрессивная
Бит/(Пиксели*Кадры) : 0.131
Размер потока : 2,23 Гбайт (77%)
Библиотека кодирования : x264 core 142 r2431 ac76440
Настройки программы : cabac=1 / ref=8 / deblock=1:-2:-1 / analyse=0x3:0x113 / me=umh / subme=8 / psy=1 / psy_rd=1.04:0.00 / mixed_ref=1 / me_range=16 / chroma_me=1 / trellis=2 / 8x8dct=1 / cqm=0 / deadzone=21,11 / fast_pskip=1 / chroma_qp_offset=-2 / threads=18 / lookahead_threads=3 / sliced_threads=0 / nr=0 / decimate=1 / interlaced=0 / bluray_compat=0 / constrained_intra=0 / bframes=3 / b_pyramid=2 / b_adapt=2 / b_bias=0 / direct=3 / weightb=1 / open_gop=0 / weightp=2 / keyint=240 / keyint_min=24 / scenecut=40 / intra_refresh=0 / rc_lookahead=50 / rc=2pass / mbtree=1 / bitrate=2150 / ratetol=1.0 / qcomp=0.60 / qpmin=0 / qpmax=69 / qpstep=4 / cplxblur=20.0 / qblur=0.5 / vbv_maxrate=62500 / vbv_bufsize=78125 / nal_hrd=none / filler=0 / ip_ratio=1.40 / aq=1:1.00
Язык : English
Default : Да
Forced : Нет
DURATION : 02:32:18.417000000
NUMBER_OF_FRAMES : 219322
NUMBER_OF_BYTES : 2455580925
_STATISTICS_WRITING_APP : mkvmerge v7.2.0 ('On Every Street') 64bit built on Sep 13 2014 15:52:10
_STATISTICS_WRITING_DATE_UTC : 2015-01-10 19:36:15
_STATISTICS_TAGS : BPS DURATION NUMBER_OF_FRAMES NUMBER_OF_BYTES
Основные цвета : BT.709-5, BT.1361, IEC 61966-2-4, SMPTE RP177
Характеристики трансфера : BT.709-5, BT.1361
Коэффициенты матрицы : BT.709-5, BT.1361, IEC 61966-2-4 709, SMPTE RP177

Аудио #1
Идентификатор : 2
Формат : AC-3
Формат/Информация : Audio Coding 3
Расширение режима : CM (complete main)
Идентификатор кодека : A_AC3
Продолжительность : 2 ч. 32 м.
Вид битрейта : Постоянный
Битрейт : 384 Кбит/сек
Каналы : 2 канала
Расположение каналов : Front: L R
Частота : 44,1 КГц
Битовая глубина : 16 бит
Метод сжатия : С потерями
Размер потока : 418 Мбайт (14%)
Заголовок : D3Si MaNiaCs
Язык : Hindi
Default : Да
Forced : Нет

Аудио #2
Идентификатор : 4
Формат : AC-3
Формат/Информация : Audio Coding 3
Расширение режима : CM (complete main)
Идентификатор кодека : A_AC3
Продолжительность : 2 ч. 32 м.
Вид битрейта : Постоянный
Битрейт : 192 Кбит/сек
Каналы : 2 канала
Расположение каналов : Front: L R
Частота : 48,0 КГц
Битовая глубина : 16 бит
Метод сжатия : С потерями
Размер потока : 209 Мбайт (7%)
Default : Нет
Forced : Нет

Текст
Идентификатор : 3
Формат : UTF-8
Идентификатор кодека : S_TEXT/UTF8
Идентификатор кодека/Информация : UTF-8 Plain Text
Default : Да
Forced : Нет
Скриншоты:

Все одноименные релизы в Клубе
Время раздачи:Круглосуточно до 10 скачавших
[NNM-Club.me]_PK 2014 BDRip 720p-LQ.mkv.torrent
 Торрент: Платиновая раздача  Зарегистрирован
 
Скачать


Примагнититься
 Зарегистрирован:   11 Янв 2015 09:00:35
 Размер:   2,9 GB  (
 Рейтинг:   4,6 (Голосов: 224)
 Поблагодарили:   995
 Проверка:   Оформление проверено модератором 11 Янв 2015 09:09:37
Как cкачать  ·  Как раздать  ·  Правильно оформить  ·  Поднять ратио!  
egor1948
Стаж: 6 лет 7 мес.
Сообщений: 101
Ratio: 742,322
100%
Откуда: москва
russia.gif
Редкий рейтинг: прямо зашкаливает. Скачаю.
macabr
Стаж: 12 лет 4 мес.
Сообщений: 453
Ratio: 1,209
100%
russia.gif
Рейтинг вселяет ужас!Фанаты индийских фильмов жестоки и беспощадны.

_________________
Если можно, а тем более нужно, то как-то не очень и хочется.
Karmin22
Стаж: 5 лет 8 мес.
Сообщений: 171
Ratio: 0,754
88.89%
Хороший фильм, добрый, раскрывает глаза на глупость религий - наконец-то, неужели у них уже начали открываться глаза. Танцев почти нет, а что есть - прикольное. В общем, годен к просмотру
pk2012
Стаж: 8 лет 9 мес.
Сообщений: 167
Ratio: 5,081
Поблагодарили: 1182
100%
russia.gif
PK качаю, посмотрю :-)
Кстати этот Актер, Продюсер, Режиссер, Сценарист снял отличный фильм "Звёздочки на земле" (Топ250 Кинопоиска: 145 место)

_________________
Не Бог принимает или не принимает человека, а человек принимает или отвергает Бога
Karmin22
Стаж: 5 лет 8 мес.
Сообщений: 171
Ratio: 0,754
88.89%
pk2012 писал(а): Перейти к сообщению
PK качаю, посмотрю :-)
Кстати этот Актер, Продюсер, Режиссер, Сценарист снял отличный фильм "Звёздочки на земле" (Топ250 Кинопоиска: 145 место)


Благодарю, от себя могу посоветовать "Миллионер из трущоб"
Olafff
 
Стаж: 10 лет 1 мес.
Сообщений: 720
Ratio: 6,627
100%
ussr.gif
Отличное кино, спасибо!
WolfEywa
Стаж: 9 лет 3 мес.
Сообщений: 296
Ratio: 1,132
Поблагодарили: 250
0.72%
идея фильма хорошая, но слишком наивно снят, детям от 6 лет думаю особо понравится) особенно танцующие автомобили)))...
после фильма... пап-мам.. а я из танцующего автомобиля появился?)...
Karmin22
Стаж: 5 лет 8 мес.
Сообщений: 171
Ratio: 0,754
88.89%
Детям от 6 лет... печально...
DJRUBBER
Стаж: 9 лет 2 мес.
Сообщений: 115
Ratio: 4,29
100%
russia.gif
Этот фильм достоин, чтобы про него писали. Рейтинг себя полностью оправдывает!
Спасибо!
Sancho2333
Стаж: 9 лет 1 мес.
Сообщений: 220
Ratio: 22,006
Раздал: 29,98 TB
18.46%
macabr писал(а): Перейти к сообщению
Рейтинг вселяет ужас!Фанаты индийских фильмов жестоки и беспощадны.

Я уверяю, рейтинг меньше не станет.
alexey3312
Стаж: 9 лет 6 мес.
Сообщений: 750
Ratio: 11,409
Раздал: 11,34 TB
100%
ussr.gif
У него ж Электроника в руках!!!

_________________
Металлисты - это самый развитой и передовой класс, и никто не может отрицать, что это и есть передовой отряд всего пролетариата. В.И. Ленин
ABISMAL8888
Стаж: 6 лет 2 мес.
Сообщений: 106
Ratio: 0,231
0%
Офигенно он выглядит для 50 лет, вот чурки же и как это у них получается
LuckyDay
Стаж: 10 лет 2 мес.
Сообщений: 67
Ratio: 3,213
100%
russia.gif
Отличный фильм! Давно не получал такого удовольствия, хотя не поклонник боливуда. PS А мысли в фильме и вопросы подняты правильные.
grif17
Стаж: 10 лет 9 мес.
Сообщений: 14
Ratio: 15,61
100%
Karmin22 писал(а): Перейти к сообщению
Хороший фильм, добрый, раскрывает глаза на глупость религий - наконец-то, неужели у них уже начали открываться глаза. Танцев почти нет, а что есть - прикольное. В общем, годен к просмотру, но быдлу не смотреть - не оценят.

поддерживаю целиком и полностью
Отличный фильм !!!
Показать сообщения:   
Начать новую тему   Ответить на тему    Торрент-трекер NNM-Club -> Зарубежное кино -> Индийское кино Часовой пояс: GMT + 3
Страницы:  1, 2, 3, 4  След.
Страница 1 из 4